Ивановский Торрент трекер
Яндекс.Погода
 

[Цитировать]
HUNTER

Это случилось однажды ночью / It Happened One Night
Страна: США
Жанр: романтическая комедия
Год выпуска: 1934
Продолжительность: 01:45:17
Перевод: Профессиональный (многоголосый закадровый) DVD Land
Перевод: Профессиональный (двухголосый закадровый) New Dream Media
Перевод: Профессиональный (двухголосый закадровый) Светла
Cубтитры: английские
Оригинальная аудиодорожка: английский-Режиссер: Фрэнк Капра / Frank Capra
В ролях: Кларк Гейбл, Клодетт Колбер, Уолтер Коннолли, Роско Карнс, Джеймисон Томас, Алан Хейл, Артур Хойт, Бланш Фредеричи, Чарльз С. Уилсон, Эрни Адамс
Описание: Питер - острый на язык журналист, Элли - головокружительная дама, сбежавшая от строгого отца. Эти двое встречаются в дороге и вынуждены, с неохотой, но все-таки сотрудничать: для него это означает большую статью в газете, для нее - возможность попасть в Нью-Йорк к жениху. Но от вражды до любви только несколько шагов.
IMDb || КиноПоиск-Тип релиза: BDRemux 1080p [It Happened One Night 1934 1080p Blu-ray AVC LPCM 1.0-PCH]
Контейнер: MKV
Видео: MPEG-4 AVC Video, 1920x1080 at 23.976 fps, 24114 kbps
Аудио#1: Russian: 48 kHz, AC3, 2.0 ch, 256 kbps
Аудио#2: Russian: 48 kHz, AC3, 2.0 ch, 224 kbps
Аудио#3: Russian: 48 kHz, AC3, 2.0 ch, 192 kbps
Аудио#4: English: 48 kHz, LPCM, 1.0 ch, 1152 kbps
Формат субтитров: softsub (SRT)
Сэмпл

Дополнительно

Отечественные дорожки из раздач: DVD Land, Светла, New Dream Media. Авторам спасибо.

MediaInfo

General
Unique ID : 198228176798246156630559998588458402482 (0x95215BAFD47B1FC3836B5CF94B6082B2)
Complete name : I:\Это случилось однажды ночью\It.Happened.One.Night.1934.Criterion.BDRemux. rutracker.mkv
Format : Matroska
Format version : Version 2
File size : 19.0 GiB
Duration : 1h 45mn
Overall bit rate mode : Variable
Overall bit rate : 25.9 Mbps
Movie name : Release for RuTracker
Writing application : mkvmerge v5.0.1 ('Es ist Sommer') built on Nov 6 2011 16:23:40
Writing library : libebml v1.2.2 + libmatroska v1.3.0
Video
ID : 1
Format : AVC
Format/Info : Advanced Video Codec
Format profile : High@L4.1
Format settings, CABAC : Yes
Format settings, ReFrames : 4 frames
Codec ID : V_MPEG4/ISO/AVC
Duration : 1h 45mn
Bit rate mode : Variable
Maximum bit rate : 37.0 Mbps
Width : 1 920 pixels
Height : 1 080 pixels
Display aspect ratio : 16:9
Frame rate mode : Constant
Frame rate : 23.976 fps
Color space : YUV
Chroma subsampling : 4:2:0
Bit depth : 8 bits
Scan type : Progressive
Title : It.Happened.One.Night.1934.Criterion.BDRemux. rutracker
Language : English
Default : Yes
Forced : No
Audio #1
ID : 2
Format : AC-3
Format/Info : Audio Coding 3
Mode extension : CM (complete main)
Format settings, Endianness : Big
Codec ID : A_AC3
Duration : 1h 45mn
Bit rate mode : Constant
Bit rate : 256 Kbps
Channel(s) : 2 channels
Channel positions : Front: L R
Sampling rate : 48.0 KHz
Bit depth : 16 bits
Compression mode : Lossy
Stream size : 193 MiB (1%)
Title : DVD Land
Language : Russian
Default : Yes
Forced : No
Audio #2
ID : 3
Format : AC-3
Format/Info : Audio Coding 3
Mode extension : CM (complete main)
Format settings, Endianness : Big
Codec ID : A_AC3
Duration : 1h 45mn
Bit rate mode : Constant
Bit rate : 224 Kbps
Channel(s) : 2 channels
Channel positions : Front: L R
Sampling rate : 48.0 KHz
Bit depth : 16 bits
Compression mode : Lossy
Stream size : 169 MiB (1%)
Title : New Dream Media
Language : Russian
Default : No
Forced : No
Audio #3
ID : 4
Format : AC-3
Format/Info : Audio Coding 3
Mode extension : CM (complete main)
Format settings, Endianness : Big
Codec ID : A_AC3
Duration : 1h 45mn
Bit rate mode : Constant
Bit rate : 192 Kbps
Channel(s) : 2 channels
Channel positions : Front: L R
Sampling rate : 48.0 KHz
Bit depth : 16 bits
Compression mode : Lossy
Stream size : 145 MiB (1%)
Title : Светла
Language : Russian
Default : No
Forced : No
Audio #4
ID : 5
Format : PCM
Codec ID : A_PCM/INT/LIT
Duration : 1h 45mn
Bit rate mode : Constant
Sampling rate : 48.0 KHz
Bit depth : 24 bits
Language : English
Default : No
Forced : No
Text #1
ID : 6
Format : UTF-8
Codec ID : S_TEXT/UTF8
Codec ID/Info : UTF-8 Plain Text
Language : English
Default : No
Forced : No
Text #2
ID : 7
Format : UTF-8
Codec ID : S_TEXT/UTF8
Codec ID/Info : UTF-8 Plain Text
Title : SDH
Language : English
Default : No
Forced : No
Menu
00:00:00.000 : en:00:00:00.000
00:09:21.644 : en:00:09:21.644
00:18:49.211 : en:00:18:49.211
00:24:23.087 : en:00:24:23.087
00:32:16.518 : en:00:32:16.518
00:41:55.304 : en:00:41:55.304
00:48:16.727 : en:00:48:16.727
00:59:41.703 : en:00:59:41.703
01:09:07.226 : en:01:09:07.226
01:18:46.055 : en:01:18:46.055
01:28:46.905 : en:01:28:46.905
01:39:23.624 : en:01:39:23.624

Скриншоты



Показать сообщения:    

Текущее время: 12-Дек 10:38

Часовой пояс: UTC ± 0


Вы не можете начинать темы
Вы не можете отвечать на сообщения
Вы не можете редактировать свои сообщения
Вы не можете удалять свои сообщения
Вы не можете голосовать в опросах
Вы не можете прикреплять файлы к сообщениям
Вы не можете скачивать файлы

!ВНИМАНИЕ!
Сайт не предоставляет электронные версии произведений, а занимается лишь коллекционированием и каталогизацией ссылок, присылаемых и публикуемых на форуме нашими читателями. Если вы являетесь правообладателем какого-либо представленного материала и не желаете, чтобы ссылка на него находилась в нашем каталоге, свяжитесь с нами, и мы незамедлительно удалим ее. Файлы для обмена на трекере предоставлены пользователями сайта, и администрация не несет ответственности за их содержание. Просьба не заливать файлы, защищенные авторскими правами, а также файлы нелегального содержания!