Важное объявление!
У Нас Все раздачи мультитрекерные, при нуле пиров в релизах, можете смело вставать на закачку!
 
Автор Сообщение

HUNTER

Стаж:
4 года 10 месяцев
Сообщений:
65542

Репутация: 101

[+] [-]
Вне форума [Профиль] [ЛС]

Это случилось однажды ночью / It Happened One Night
Страна: США
Жанр: мелодрама, комедия
Год выпуска: 1934
Продолжительность: 01:45:03
Перевод 1: Профессиональный (многоголосый закадровый) DVD Land
Перевод 2: Профессиональный (двухголосый закадровый)
Перевод 3: Профессиональный (двухголосый закадровый) Светла
Cубтитры: английские
Оригинальная аудиодорожка: английский
Режиссер: Фрэнк Капра / Frank Capra
В ролях: Кларк Гейбл, Клодетт Колбер, Уолтер Коннолли, Роско Карнс, Джеймисон Томас, Алан Хейл, Артур Хойт, Бланш Фредеричи, Чарльз С. Уилсон, Эрни Адамс
Описание: Элли собирается замуж за знаменитого летчика Кинга Вестли, но ее отец презирает того, считая светским бездельником, поэтому он сажает дочь под замок и ищет основания для аннулирования помолвки. Элли удается бежать и она отправляется навстречу суженому в Нью-Йорк на автобусе. В том же автобусе едет только что уволенный репортер Питер.
Ему необходима сенсация, чтобы восстановить отношения с редактором. В лице беглой наследницы миллионов, которую ищет полиция всей страны, судьба улыбается ему. Он обещает помочь ей, но в пути планы обоих меняются. О, великая сила любви.
Доп. информация:


За дорожку с переводом DVD Land спасибо -zavis-
За двухголоску спасибо vladimiryakushin
За дорожку с переводом Светлы спасибо palmeiras и olegsa
Сэмпл: http://sendfile.su/1035887
Тип релиза: WEB-DL 720p
Контейнер: MKV
Видео: AVC, 964x720, L3.1, 23.976fps, 4171kbps
Аудио 1: Russian: AC3, 48000Hz, 2ch, 256kbps - DVD Land
Аудио 2: Russian: AC3, 48000Hz, 2ch, 224kbps - DVO
Аудио 3: Russian: AC3, 48000Hz, 2ch, 192kbps - Светла
Аудио 4: English: AC3, 48000Hz, 2ch, 256kbps - DVD
Аудио 5: English: AAC, 48000Hz, 2ch, 117kbps - WEB-DL
Аудио 6: English: AC3, 48000Hz, 2ch, 256kbps - Director Comments
Формат субтитров: softsub (SRT)

MediaInfo

Общее
Уникальный идентификатор : 229908494766199589872889368687338048285 (0xACF6C3F4C9C988B188831E1524E3CB1D)
Полное имя : T:\It Happened One Night (WEB-DL 720p).mkv
Формат : Matroska
Версия формата : Version 4 / Version 2
Размер файла : 4,02 Гбайт
Продолжительность : 1 ч. 45 м.
Общий поток : 5472 Кбит/сек
Дата кодирования : UTC 2014-10-16 09:49:08
Программа кодирования : mkvmerge v6.9.1 ('Blue Panther') 64bit built on Apr 18 2014 18:23:38
Библиотека кодирования : libebml v1.3.0 + libmatroska v1.4.1
Видео
Идентификатор : 1
Формат : AVC
Формат/Информация : Advanced Video Codec
Профиль формата : Main@L3.1
Параметр CABAC формата : Нет
Параметр ReFrames формата : 2 кадра
Идентификатор кодека : V_MPEG4/ISO/AVC
Продолжительность : 1 ч. 45 м.
Ширина : 964 пикселя
Высота : 720 пикселей
Соотношение сторон : 4:3
Режим частоты кадров : Постоянный
Частота кадров : 23,976 кадра/сек
Цветовое пространство : YUV
Субдискретизация насыщенности : 4:2:0
Битовая глубина : 8 бит
Тип развёртки : Прогрессивная
Язык : English
Default : Да
Forced : Нет
Основные цвета : BT.709
Характеристики трансфера : BT.709
Коэффициенты матрицы : BT.709
Аудио #1
Идентификатор : 2
Формат : AC-3
Формат/Информация : Audio Coding 3
Расширение режима : CM (complete main)
Параметр Endianness формата : Big
Идентификатор кодека : A_AC3
Продолжительность : 1 ч. 45 м.
Вид битрейта : Постоянный
Битрейт : 256 Кбит/сек
Каналы : 2 канала
Расположение каналов : Front: L R
Частота : 48,0 КГц
Битовая глубина : 16 бит
Метод сжатия : С потерями
Размер потока : 192 Мбайт (5%)
Заголовок : DVD Land
Язык : Russian
Default : Да
Forced : Нет
Аудио #2
Идентификатор : 3
Формат : AC-3
Формат/Информация : Audio Coding 3
Расширение режима : CM (complete main)
Параметр Endianness формата : Big
Идентификатор кодека : A_AC3
Продолжительность : 1 ч. 45 м.
Вид битрейта : Постоянный
Битрейт : 224 Кбит/сек
Каналы : 2 канала
Расположение каналов : Front: L R
Частота : 48,0 КГц
Битовая глубина : 16 бит
Метод сжатия : С потерями
Размер потока : 168 Мбайт (4%)
Заголовок : DVO
Язык : Russian
Default : Нет
Forced : Нет
Аудио #3
Идентификатор : 4
Формат : AC-3
Формат/Информация : Audio Coding 3
Расширение режима : CM (complete main)
Параметр Endianness формата : Big
Идентификатор кодека : A_AC3
Продолжительность : 1 ч. 45 м.
Вид битрейта : Постоянный
Битрейт : 192 Кбит/сек
Каналы : 2 канала
Расположение каналов : Front: L R
Частота : 48,0 КГц
Битовая глубина : 16 бит
Метод сжатия : С потерями
Размер потока : 144 Мбайт (4%)
Заголовок : Светла
Язык : Russian
Default : Нет
Forced : Нет
Аудио #4
Идентификатор : 5
Формат : AC-3
Формат/Информация : Audio Coding 3
Расширение режима : CM (complete main)
Параметр Endianness формата : Big
Идентификатор кодека : A_AC3
Продолжительность : 1 ч. 45 м.
Вид битрейта : Постоянный
Битрейт : 256 Кбит/сек
Каналы : 2 канала
Расположение каналов : Front: L R
Частота : 48,0 КГц
Битовая глубина : 16 бит
Метод сжатия : С потерями
Размер потока : 192 Мбайт (5%)
Заголовок : DVD
Язык : English
Default : Нет
Forced : Нет
Аудио #5
Идентификатор : 6
Формат : AAC
Формат/Информация : Advanced Audio Codec
Профиль формата : LC
Идентификатор кодека : A_AAC
Продолжительность : 1 ч. 45 м.
Каналы : 2 канала
Расположение каналов : Front: L R
Частота : 48,0 КГц
Метод сжатия : С потерями
Заголовок : WEB-DL
Язык : English
Default : Нет
Forced : Нет
Аудио #6
Идентификатор : 7
Формат : AC-3
Формат/Информация : Audio Coding 3
Расширение режима : CM (complete main)
Параметр Endianness формата : Big
Идентификатор кодека : A_AC3
Продолжительность : 1 ч. 45 м.
Вид битрейта : Постоянный
Битрейт : 256 Кбит/сек
Каналы : 2 канала
Расположение каналов : Front: L R
Частота : 48,0 КГц
Битовая глубина : 16 бит
Метод сжатия : С потерями
Размер потока : 192 Мбайт (5%)
Заголовок : Director Comments
Язык : English
Default : Нет
Forced : Нет
Текст
Идентификатор : 8
Формат : UTF-8
Идентификатор кодека : S_TEXT/UTF8
Идентификатор кодека/Информация : UTF-8 Plain Text
Язык : English
Default : Нет
Forced : Нет
Меню
00:00:00.000 : en:Start
00:01:22.000 : en:Hunger Strike
00:03:55.000 : en:History in the Making
00:06:21.000 : en:Last Seats
00:09:29.000 : en:Stolen Luggage
00:13:18.000 : en:"Wait for me."
00:14:56.000 : en:Missed Connections
00:18:09.000 : en:Collect Telegram
00:18:56.000 : en:"My name's Shapeley."
00:23:36.000 : en:Dyke's Auto Camp
00:27:26.000 : en:Walls of Jericho
00:34:58.000 : en:Ladies Shower
00:36:29.000 : en:Art of Dunking
00:39:01.000 : en:"Quit Bawlin'!"
00:43:53.000 : en:"The Man On The Flying Trapeze"
00:48:24.000 : en:"Machine Gun"" Shapeley"
00:54:35.000 : en:Haystacks for Two
00:59:47.000 : en:Hitchhiker's Guide
01:04:20.000 : en:Road Thief
01:10:15.000 : en:Cabin for the Night
01:19:32.000 : en:On the Level
01:21:07.000 : en:"You'll have to get."
01:24:25.000 : en:Ellie Goes Home
01:28:53.000 : en:"What's the matter?"
01:35:58.000 : en:$39.60
01:40:26.000 : en:The Wedding
01:42:53.000 : en:Runaway Bride
01:43:29.000 : en:"Let'em topple."

Скриншоты


_________________
Показать сообщения:    

Текущее время: Сегодня 02:31

Часовой пояс: GMT



Вы не можете начинать темы
Вы не можете отвечать на сообщения
Вы не можете редактировать свои сообщения
Вы не можете удалять свои сообщения
Вы не можете голосовать в опросах
Вы не можете прикреплять файлы к сообщениям
Вы не можете скачивать файлы