Ивановский Торрент трекер
Яндекс.Погода
 

[Цитировать]
HUNTER

Это прибыло из космоса
It Came from Outer Space
Год выпуска: 1953
Страна: США (Universal International Pictures)
Жанр: Фантастика, Триллер
Продолжительность: 01:20:18Перевод: Профессиональный многоголосый закадровый - Объединение "Русский дубляж" по заказу СТСРежиссер: Джек Арнольд / Jack ArnoldВ ролях: Ричард Карлсон (John Putnam), Барбара Раш (Ellen Fields), Чарльз Дрэйк (Sheriff Matt Warren), Джо Сойер (Frank Daylon), Расселл Джонсон (George), Кэтлин Хьюз (June), Ральф Брукс (Posseman), Роберт Карсон (Dugan), Нед Девенпорт (Man), Эдгар Диаринг (Sam), Алан Декстер (Dave Loring), Джордж Элдридж (Dr. Snell)Описание: Джон Патнэм и Эллен наблюдают за шумным и сопровождаемым вспышками света падением какого-то крупного объекта вблизи местного рудника. Джон и Эллен — единственные, кто верят, что загадочный объект — не метеорит, а потерпевший крушение космический корабль инопланетян. В последующие дни с некоторыми местными жителями происходят необъяснимые явления.
Джон и Эллен подозревают, что этих людей забирают на космический корабль для экспериментов, а потом после каких-то манипуляций возвращают назад уже измененными. Местный шериф не знает, что и думать об этих фантастических версиях, и снаряжает отряд для разведки. Патнэм предпочитает провести собственное расследования мирным путем. Без оружия он добровольно поднимается на борт корабля пришельцев.
Доп. инфо:
По рассказу Рэя Брэдбери.
Фильм восстановлен студией 3-D Film Archive.
Формат изображения: 1.37 : 1.
Изображение: чёрно-белое.Премьера (мир): 25 мая 1953
[img]https://rating.kinopoisk.ru/35593.gif[/img]. .
За исходный BD 3D Remux спасибо flaSI-I!
Качество: BDRip (by Ash61)
Контейнер: MKV
Формат 3D: Half OverUnder / Вертикальная анаморфная стереопара
Порядок ракурсов: левый ракурс первыйВидео: AVC / 1920х1080p / 23,976 fps / 12.9 MbpsАудио:
#1 - Русский / AC3 / 48 KHz / 3 ch (Front: L C R) / 640 Kbps (MVO - "Русский дубляж") [монтаж в 3.0 - Ash61]
#2 - Английский / AC3 / 48 KHz / 3 ch (Front: L C R) / 640 Kbps (Original - BD 3D)Субтитры (внешние SRT ANSI):
#1 - English Full
#2 - English Commentary

MediaInfo

General
Unique ID : 243225691539218287146544445930694798912 (0xB6FB907335CC57EAA93FF7D6D8E06E40)
Complete name : E:\ItCameFromOuterSpace(1953)3D-halfOU(Ash61)\ItCameFromOuterSpace(1953)3D-halfOU(Ash61).mkv
Format : Matroska
Format version : Version 2
File size : 8.24 GiB
Duration : 1h 20mn
Overall bit rate : 14.7 Mbps
Movie name : Это прибыло из космоса / It Came from Outer Space (1953) в 3Д
Encoded date : UTC 2016-10-23 16:49:24
Writing application : mkvmerge v5.8.0 ('No Sleep / Pillow') built on Sep 2 2012 15:37:04
Writing library : libebml v1.2.3 + libmatroska v1.3.0Video
ID : 1
Format : AVC
Format/Info : Advanced Video Codec
Format profile : High@L4.1
Format settings, CABAC : Yes
Format settings, ReFrames : 4 frames
Codec ID : V_MPEG4/ISO/AVC
Duration : 1h 20mn
Bit rate : 12.9 Mbps
Width : 1 920 pixels
Height : 1 080 pixels
Display aspect ratio : 16:9
Frame rate mode : Constant
Frame rate : 23.976 fps
Color space : YUV
Chroma subsampling : 4:2:0
Bit depth : 8 bits
Scan type : Progressive
Bits/(Pixel*Frame) : 0.260
Stream size : 7.25 GiB (88%)
Title : BDRip by Ash61
Writing library : x264 core 146 r2538 121396c
Encoding settings : cabac=1 / ref=4 / deblock=1:-3:-3 / analyse=0x3:0x113 / me=umh / subme=10 / psy=1 / psy_rd=1.00:0.00 / mixed_ref=1 / me_range=32 / chroma_me=1 / trellis=2 / 8x8dct=1 / cqm=0 / deadzone=21,11 / fast_pskip=1 / chroma_qp_offset=-2 / threads=12 / lookahead_threads=3 / sliced_threads=0 / nr=0 / decimate=1 / interlaced=0 / bluray_compat=0 / constrained_intra=0 / bframes=12 / b_pyramid=2 / b_adapt=2 / b_bias=0 / direct=3 / weightb=1 / open_gop=0 / weightp=2 / keyint=250 / keyint_min=23 / scenecut=40 / intra_refresh=0 / rc_lookahead=60 / rc=crf / mbtree=1 / crf=15.5 / qcomp=0.70 / qpmin=0 / qpmax=69 / qpstep=4 / vbv_maxrate=40000 / vbv_bufsize=30000 / crf_max=0.0 / nal_hrd=none / filler=0 / frame-packing=4 / ip_ratio=1.40 / aq=1:0.70
Language : English
Default : Yes
Forced : NoAudio #1
ID : 2
Format : AC-3
Format/Info : Audio Coding 3
Mode extension : CM (complete main)
Format settings, Endianness : Big
Codec ID : A_AC3
Duration : 1h 20mn
Bit rate mode : Constant
Bit rate : 640 Kbps
Channel(s) : 3 channels
Channel positions : Front: L C R
Sampling rate : 48.0 KHz
Bit depth : 16 bits
Compression mode : Lossy
Stream size : 368 MiB (4%)
Title : Многоголосый закадровый (Объединение "Русский дубляж" по заказу СТС) [монтаж в 3.0ch - Ash61]
Language : Russian
Default : Yes
Forced : NoAudio #2
ID : 3
Format : AC-3
Format/Info : Audio Coding 3
Mode extension : CM (complete main)
Format settings, Endianness : Big
Codec ID : A_AC3
Duration : 1h 20mn
Bit rate mode : Constant
Bit rate : 640 Kbps
Channel(s) : 3 channels
Channel positions : Front: L C R
Sampling rate : 48.0 KHz
Bit depth : 16 bits
Compression mode : Lossy
Stream size : 368 MiB (4%)
Title : Original
Language : English
Default : No
Forced : NoAudio #3
ID : 4
Format : AC-3
Format/Info : Audio Coding 3
Mode extension : CM (complete main)
Format settings, Endianness : Big
Codec ID : A_AC3
Duration : 1h 20mn
Bit rate mode : Constant
Bit rate : 192 Kbps
Channel(s) : 2 channels
Channel positions : Front: L R
Sampling rate : 48.0 KHz
Bit depth : 16 bits
Compression mode : Lossy
Stream size : 110 MiB (1%)
Title : Commentary
Language : English
Default : No
Forced : NoMenu
00:00:00.000 : :1
00:03:32.877 : :2
00:09:58.932 : :3
00:14:29.033 : :4
00:17:50.027 : :5
00:20:27.057 : :6
00:22:20.756 : :7
00:32:03.547 : :8
00:41:37.452 : :9
00:43:51.710 : :10
00:52:15.132 : :11
00:56:37.143 : :12
01:02:24.489 : :13
01:07:09.317 : :14
01:12:45.444 : :15
01:14:59.912 : :16
01:18:31.747 : :17
01:19:13.957 : :18

Для оценки 3Д - Анимированные скрины




















0 человек читают эту тему: 0 пользователей, 0 скрытых пользователей, 0 гостей

Показать сообщения:    

Текущее время: 23-Авг 09:17

Часовой пояс: UTC - 1


Вы не можете начинать темы
Вы не можете отвечать на сообщения
Вы не можете редактировать свои сообщения
Вы не можете удалять свои сообщения
Вы не можете голосовать в опросах
Вы не можете прикреплять файлы к сообщениям
Вы не можете скачивать файлы

!ВНИМАНИЕ!
Сайт не предоставляет электронные версии произведений, а занимается лишь коллекционированием и каталогизацией ссылок, присылаемых и публикуемых на форуме нашими читателями. Если вы являетесь правообладателем какого-либо представленного материала и не желаете, чтобы ссылка на него находилась в нашем каталоге, свяжитесь с нами, и мы незамедлительно удалим ее. Файлы для обмена на трекере предоставлены пользователями сайта, и администрация не несет ответственности за их содержание. Просьба не заливать файлы, защищенные авторскими правами, а также файлы нелегального содержания!