Ивановский Торрент трекер
Яндекс.Погода
 

[Цитировать]
HUNTER

Это началось в Неаполе / It Started in Naples
Страна: США
Студия: Paramount Pictures and Capri Productions
Жанр: Драма, комедия
Год выпуска: 1960
Продолжительность: 01:34:38
Перевод: Профессиональный (двухголосый закадровый)
Cубтитры: нет
Оригинальная аудиодорожка: нет
Режиссер: Мелвилл Шэвелсон / Melville Shavelson
В ролях: Кларк Гейбл, Софи Лорен, Витторио Де Сика, Мариэтто
Описание: Адвокат Майкл Гамильтон приезжает из Филадельфии в Неаполь, чтобы уладить дела своего умершего брата Джозефа, с которым он долгое время не виделся. Он придерживается невысокого мнения об итальянцах, и его предубежденность усиливается, когда от адвоката Марио Витале он узнает, что Джозеф, несмотря на то, что у него в Филадельфии осталась жена, завел семью в Неаполе и оставил после себя сына, восьмилетнего Нандо. Мальчика воспитывает его тетя, красотка Лючия Курчо. Узнав, что Лючия работает танцовщицей в ночном клубе на Капри, Гамильтон собирается забрать у нее Нандо и увезти в Америку, однако в итоге влюбляется в нее.
Сэмпл: http://rusfolder.com/40577611
Тип релиза: HDTV 1080i
Контейнер: TS
Видео: 4672 Кбит/сек, MPEG4 Video (H264) 1920x1080 (16:9) 25fps
Аудио: MPEG Audio 48000Hz stereo Layer 2 192kbps
MediaInfo
Общее
Идентификатор : 1 (0x1)
Полное имя : D:\Это началось в Неаполе (It Started in Naples) [1960] (RUS) Paramount Channe HD.ts
Формат : MPEG-TS
Размер файла : 3,38 Гбайт
Продолжительность : 1 ч. 34 м.
Режим общего битрейта : Переменный
Общий поток : 5119 Кбит/сек
Видео
Идентификатор : 69 (0x45)
Идентификатор меню : 1 (0x1)
Формат : AVC
Формат/Информация : Advanced Video Codec
Профиль формата : High@L4.0
Параметр CABAC формата : Да
Параметр ReFrames формата : 4 кадра
Идентификатор кодека : 27
Продолжительность : 1 ч. 34 м.
Вид битрейта : Переменный
Битрейт : 4672 Кбит/сек
Максимальный битрейт : 5000 Кбит/сек
Ширина : 1920 пикселей
Высота : 1080 пикселей
Соотношение сторон : 16:9
Режим частоты кадров : Переменный
Цветовое пространство : YUV
Субдискретизация насыщенности : 4:2:0
Битовая глубина : 8 бит
Тип развёртки : MBAFF
Размер потока : 3,09 Гбайт (91%)
Аудио
Идентификатор : 68 (0x44)
Идентификатор меню : 1 (0x1)
Формат : MPEG Audio
Версия формата : Version 1
Профиль формата : Layer 2
Идентификатор кодека : 3
Продолжительность : 1 ч. 34 м.
Вид битрейта : Постоянный
Битрейт : 192 Кбит/сек
Каналы : 2 канала
Частота : 48,0 КГц
Метод сжатия : С потерями
Размер потока : 130 Мбайт (4%)
Язык : Russian
Скриншоты


Показать сообщения:    

Текущее время: 11-Дек 18:44

Часовой пояс: UTC ± 0


Вы не можете начинать темы
Вы не можете отвечать на сообщения
Вы не можете редактировать свои сообщения
Вы не можете удалять свои сообщения
Вы не можете голосовать в опросах
Вы не можете прикреплять файлы к сообщениям
Вы не можете скачивать файлы

!ВНИМАНИЕ!
Сайт не предоставляет электронные версии произведений, а занимается лишь коллекционированием и каталогизацией ссылок, присылаемых и публикуемых на форуме нашими читателями. Если вы являетесь правообладателем какого-либо представленного материала и не желаете, чтобы ссылка на него находилась в нашем каталоге, свяжитесь с нами, и мы незамедлительно удалим ее. Файлы для обмена на трекере предоставлены пользователями сайта, и администрация не несет ответственности за их содержание. Просьба не заливать файлы, защищенные авторскими правами, а также файлы нелегального содержания!