Ивановский Торрент трекер
Яндекс.Погода
 

[Цитировать]
HUNTER

Это началось в Неаполе / It Started in Naples- Год выпуска: 1960
Страна: США
Жанр: комедия, мелодрама
Продолжительность: 01:40:15
Перевод 1: Профессиональный (многоголосый закадровый) Paramount Channel
Перевод 2: Профессиональный (многоголосый закадровый) т/к «Домашний»
Оригинальная аудиодорожка: Английская
Cубтитры: Русские (форсированные на песни), русские (Lirik), английские-Режиссер: Мелвилл Шавелсон / Melville Shavelson
В ролях: Кларк Гэйбл / Clark Gable, Софи Лорен / Sophia Loren, Витторио Де Сика / Vittorio De Sica, Мариэтто / Marietto, Паоло Карлини / Paolo Carlini, Джованни Филидоро / Giovanni Filidoro, Клаудио Эрмелли / Claudio Ermelli, Боб Каннингэм / Bob Cunningham, Марко Тулли / Marco Tulli, Карло Риццо / Carlo Rizzo, Ивонн Монлор / Yvonne Monlaur, Лиана Дель Бальцо / Liana Del Balzo-Описание:
Адвокат Майкл Гамильтон приезжает из Филадельфии в Неаполь, чтобы уладить дела своего умершего брата Джозефа, с которым он долгое время не виделся. Он придерживается невысокого мнения об итальянцах, и его предубежденность усиливается, когда от адвоката Марио Витале он узнает, что Джозеф, несмотря на то, что у него в Филадельфии осталась жена, завел семью в Неаполе и оставил после себя сына, восьмилетнего Нандо. Мальчика воспитывает его тетя, красотка Лючия Курчо. Узнав, что Лючия работает танцовщицей в ночном клубе на Капри, Гамильтон собирается забрать у нее Нандо и увезти в Америку...-За предоставленную запись с Paramount Channel спасибо vedigo, за "Домашний" спасибо palmeiras.
| IMDb | Сэмпл-Качество: WEB-DL 720p (SbR)
Контейнер: MKV
Видео: AVC, 1280x718 (1.78:1), 23.976 fps, 4010 kbps
Аудио 1: Русский AC3 2.0, 48 kHz, 192 kbps — Paramount Channel
Аудио 2: Русский AC3 2.0, 48 kHz, 192 kbps — т/к «Домашний»
Аудио 3: Английский AC3 2.0, 48 kHz, 192 kbps
Аудио 4: Английский AAC 2.0, 48 kHz, 119 kbps

Скриншоты


MI

General
Unique ID : 178646599083403238319804530066975905882 (0x8666155DE1A4A49DACECACF34E94585A)
Complete name : It.Started.in.Naples.1960.720p.WEB-DL.0.H.264-SbR.mkv
Format : Matroska
Format version : Version 2
File size : 3.30 GiB
Duration : 1h 40mn
Overall bit rate : 4 708 Kbps
Movie name : It Started in Naples / Это началось в Неаполе (1960) – RuTracker
Encoded date : UTC 2015-07-05 19:27:02
Writing application : mkvmerge v7.5.0 ('Glass Culture') 64bit built on Jan 4 2015 16:48:44
Writing library : libebml v1.3.1 + libmatroska v1.4.2
Attachements : cover.jpg
Video
ID : 1
Format : AVC
Format/Info : Advanced Video Codec
Format profile : High@L3.1
Format settings, CABAC : No
Format settings, ReFrames : 2 frames
Codec ID : V_MPEG4/ISO/AVC
Duration : 1h 40mn
Width : 1 280 pixels
Height : 718 pixels
Display aspect ratio : 16:9
Frame rate mode : Constant
Frame rate : 23.976 fps
Color space : YUV
Chroma subsampling : 4:2:0
Bit depth : 8 bits
Scan type : Progressive
Title : It.Started.in.Naples.1960.720p.WEB-DL.AAC2.0.H.264-SbR
Language : English
Default : Yes
Forced : No
Color primaries : BT.709
Transfer characteristics : BT.709
Matrix coefficients : BT.709
Color range : Limited
Audio #1
ID : 2
Format : AC-3
Format/Info : Audio Coding 3
Mode extension : CM (complete main)
Format settings, Endianness : Big
Codec ID : A_AC3
Duration : 1h 40mn
Bit rate mode : Constant
Bit rate : 192 Kbps
Channel(s) : 2 channels
Channel positions : Front: L R
Sampling rate : 48.0 KHz
Bit depth : 16 bits
Compression mode : Lossy
Stream size : 138 MiB (4%)
Title : MVO – Paramount Channel
Language : Russian
Default : Yes
Forced : No
Audio #2
ID : 3
Format : AC-3
Format/Info : Audio Coding 3
Mode extension : CM (complete main)
Format settings, Endianness : Big
Codec ID : A_AC3
Duration : 1h 40mn
Bit rate mode : Constant
Bit rate : 192 Kbps
Channel(s) : 2 channels
Channel positions : Front: L R
Sampling rate : 48.0 KHz
Bit depth : 16 bits
Compression mode : Lossy
Stream size : 138 MiB (4%)
Title : MVO – Домашний
Language : Russian
Default : No
Forced : No
Audio #3
ID : 4
Format : AC-3
Format/Info : Audio Coding 3
Mode extension : CM (complete main)
Format settings, Endianness : Big
Codec ID : A_AC3
Duration : 1h 40mn
Bit rate mode : Constant
Bit rate : 192 Kbps
Channel(s) : 2 channels
Channel positions : Front: L R
Sampling rate : 48.0 KHz
Bit depth : 16 bits
Compression mode : Lossy
Stream size : 138 MiB (4%)
Title : Original (DVD)
Language : English
Default : No
Forced : No
Audio #4
ID : 5
Format : AAC
Format/Info : Advanced Audio Codec
Format profile : LC
Codec ID : A_AAC
Duration : 1h 40mn
Channel(s) : 2 channels
Channel positions : Front: L R
Sampling rate : 48.0 KHz
Compression mode : Lossy
Title : Original (iTunes)
Language : English
Default : No
Forced : No
Text #1
ID : 6
Format : UTF-8
Codec ID : S_TEXT/UTF8
Codec ID/Info : UTF-8 Plain Text
Title : forced
Language : Russian
Default : Yes
Forced : Yes
Text #2
ID : 7
Format : UTF-8
Codec ID : S_TEXT/UTF8
Codec ID/Info : UTF-8 Plain Text
Title : Lirik
Language : Russian
Default : No
Forced : No
Text #3
ID : 8
Format : UTF-8
Codec ID : S_TEXT/UTF8
Codec ID/Info : UTF-8 Plain Text
Language : English
Default : No
Forced : No
Menu
00:00:00.000 : en:Return to Naples
00:10:07.000 : en:Nando!
00:12:59.000 : en:Villa of the Royal Palace
00:18:14.000 : en:Lucia's Destiny
00:23:06.000 : en:How to Sleep on Capri
00:30:47.000 : en:Just Here on Business
00:37:02.000 : en:Nando Goes to School
00:44:37.000 : en:Hamburger Lesson
00:51:36.000 : en:$14,000 of Brotherly Love
00:59:30.000 : en:A Lawyer and a Pig
01:03:00.000 : en:A Fine Time
01:15:03.000 : en:Man to Man
01:21:09.000 : en:Day in Court
01:27:26.000 : en:Mike's Argument
01:29:18.000 : en:Everybody Loves Nando


Показать сообщения:    

Текущее время: 16-Дек 01:38

Часовой пояс: UTC ± 0


Вы не можете начинать темы
Вы не можете отвечать на сообщения
Вы не можете редактировать свои сообщения
Вы не можете удалять свои сообщения
Вы не можете голосовать в опросах
Вы не можете прикреплять файлы к сообщениям
Вы не можете скачивать файлы

!ВНИМАНИЕ!
Сайт не предоставляет электронные версии произведений, а занимается лишь коллекционированием и каталогизацией ссылок, присылаемых и публикуемых на форуме нашими читателями. Если вы являетесь правообладателем какого-либо представленного материала и не желаете, чтобы ссылка на него находилась в нашем каталоге, свяжитесь с нами, и мы незамедлительно удалим ее. Файлы для обмена на трекере предоставлены пользователями сайта, и администрация не несет ответственности за их содержание. Просьба не заливать файлы, защищенные авторскими правами, а также файлы нелегального содержания!