Важное объявление!
У Нас Все раздачи мультитрекерные, при нуле пиров в релизах, можете смело вставать на закачку!
Статистика раздачи
Размер:     |    Зарегистрирован:     |    Скачан:     |   
Нет
 
     
 
 
Автор Сообщение

HUNTER

Стаж:
5 лет
Сообщений:
68018

Репутация: 101

[+] [-]
Вне форума [Профиль] [ЛС]

Это моя собака -
Год выпуска: 2012
Страна: Россия
Жанр: мелодрама
Продолжительность: 01:29:27
Перевод: Оригинал-Режиссер: Александр Итыгилов мл.
Сценарий: Ринат Валиулин, Олег Молоканов
Продюсер: Ирина Заря, Ирина Чемерис-В ролях: Мария Куликова (Ирина), Андрей Чернышов (Юрий), Олеся Жураковская (Леся), Георгий Смирнов (Смирнов), Ольга Лукьяненко (Виолетта), Денис Матросов (Костя), Наталия Васько (Людмила), Анатолий Зиновенко (Станислав Михайлович), Екатерина Кистень , Татьяна Печенкина
-Описание: Пять лет Ирина безропотно ждала, пока ее возлюбленный Костя разведется с женой и сделает ей предложение. Наконец долгожданный день настал: Константин приглашает Иру в ресторан и торжественно объявляет, что купил обручальные кольца. Вот только второе кольцо предназначается не ей, а дочке начальника…У Ирины сложившаяся ситуация вызывает шок. Не в силах смириться с предательством любимого мужчины она решает наложить на себя руки. У входа в аптеку, куда бедная женщина отправляется за смертельной дозой снотворного, она встречает брошенную собаку. Узнав о том, что несчастную псину везут на живодерню, Ирина проникается к ней жалостью и решает забрать домой…-Премьера (РФ): 25 ноября 2012
Рейтинг: Семпл-Качество: SATRip
Формат: AVI
Видео кодек: XviD
Аудио кодеk: MP3
Видео: 720x384 (1.88:1), 25 fps, XviD build 64 ~1989 kbps avg, 0.29 bit/pixel
Аудио: Аудио #1: 48 kHz, MPEG Layer 3, 2 ch, ~192.00 kbps avg
-

МедиаИнфо

Код: copyText_writeLink('this.parentNode.parentNode.nextSibling.nextSibling'); General
Complete name : Eto.moya.sobaka.2012.SATRip.avi
Format : AVI
Format/Info : Audio Video Interleave
File size : 1.37 GiB
Duration : 1h 29mn
Overall bit rate : 2 188 Kbps
Writing application : VirtualDubMod 1.5.4.1 (build 2178/release)
Writing library : VirtualDubMod build 2178/release
Video
ID : 0
Format : MPEG-4 Visual
Format profile : Advanced Simple@L5
Format settings, BVOP : Yes
Format settings, QPel : No
Format settings, GMC : No warppoints
Format settings, Matrix : Custom
Codec ID : XVID
Codec ID/Hint : XviD
Duration : 1h 29mn
Bit rate : 1 989 Kbps
Width : 720 pixels
Height : 384 pixels
Display aspect ratio : 1.875
Frame rate : 25.000 fps
Color space : YUV
Chroma subsampling : 4:2:0
Bit depth : 8 bits
Scan type : Progressive
Bits/(Pixel*Frame) : 0.288
Stream size : 1.24 GiB (91%)
Writing library : XviD 64
Audio
ID : 1
Format : MPEG Audio
Format version : Version 1
Format profile : Layer 3
Mode : Joint stereo
Mode extension : MS Stereo
Codec ID : 55
Codec ID/Hint : MP3
Duration : 1h 29mn
Bit rate mode : Constant
Bit rate : 192 Kbps
Channel(s) : 2 channels
Sampling rate : 48.0 KHz
Stream size : 123 MiB (9%)
Alignment : Aligned on interleaves
Interleave, duration : 80 ms (2.00 video frames)
Interleave, preload duration : 504 ms
Writing library : LAME3.98r
Encoding settings : -m j -V 4 -q 2 -lowpass 18.6 -b 192
-
- -

_________________
Показать сообщения:    

Текущее время: Сегодня 14:43

Часовой пояс: GMT



Вы не можете начинать темы
Вы не можете отвечать на сообщения
Вы не можете редактировать свои сообщения
Вы не можете удалять свои сообщения
Вы не можете голосовать в опросах
Вы не можете прикреплять файлы к сообщениям
Вы не можете скачивать файлы