Ивановский Торрент трекер
Яндекс.Погода
 

[Цитировать]
HUNTER

Этот остров Земля / This island Earth
-Страна: США
Студия: Universal International Pictures
Жанр: фантастика
Год выпуска: 1955
Продолжительность: 01:26:03-Перевод: Любительский одноголосый (Eraserhead)
Cубтитры: английские, русские
Оригинальная аудиодорожка: английский-Режиссер: Джозеф Ньюман / Joseph M. Newman-В ролях: Джефф Морроу, Фейт Домерг, Рекс Ризон, Ланс Фуллер, Дуглас Спенсер-Описание: Одно из первых появлений компьютероподобного устройства в кино случилось в 1955 году в «This Island Earth». Interocitor – это коммуникационное устройство, присланное земным ученым пришельцами. Посылка изначально выглядела как книга и шла с заметкой: «Этот девайс содержит в себе больше технологий, чем вы можете вообразить, основываясь на своих познаниях в электронике. Нет границ его возможностям - создание четырехполосной магистрали длиной в 2 километра за 1 минуту для него раз плюнуть». Устройство поставлялось в разобранном состоянии и включало 2486 компонентов, ни один из которых не мог быть заменен. Собрав Interocitor, герой фильма физик Кол Мичам посредством коммуникатора наладил связь с создателем – таинственным Экзетером. С ним ученому предстояло встретиться лично, опять же не без помощи чудо-устройства. Экзетер предложил Мичаму работу. Приняв предложение, Мичам отправляется в самое необычное путешествие, которое когда-либо предпринимал человек…-Доп. информация: аудио дорожки взята http://rutracker.org/forum/viewtopic.php?t=1562220-Сэмпл: Скачать-Тип релиза: HDTVRip 720p
Контейнер: MKV
Видео: 1280x688 (1.85:1); 4566 Kbps; 23.976 fps; 0.322 bpp
Аудио 1: Russian; AC3; 48.0 KHz; 2ch; 192 Kbps
Аудио 2: English; AC3; 48.0 KHz; 1ch; 192 Kbps

MediaInfo

Format : Matroska
Format version : Version 4 / Version 2
File size : 4.32 GiB
Duration : 1h 26mn
Overall bit rate : 7 184 Kbps
Encoded date : UTC 2015-01-25 06:44:46
Writing application : mkvmerge v7.2.0 ('On Every Street') 64bit built on Sep 13 2014 15:52:10
Writing library : libebml v1.3.0 + libmatroska v1.4.1
Attachements : ThisIslandEarth1.jpg / ThisIslandEarth2.jpg / ThisIslandEarth3.jpg / ThisIslandEarth4.jpg / ThisIslandEarth5.jpg / ThisIslandEarth6.jpg / ThisIslandEarth7.jpg / ThisIslandEarth8.png / ThisIslandEarth9.jpg / ThisIslandEarth10.jpg / ThisIslandEarth11.jpg / ThisIslandEarth12.jpg / ThisIslandEarth13.jpg / ThisIslandEarth14.jpg / ThisIslandEarth15.jpg / ThisIslandEarth16.jpg / ThisIslandEarth17.jpg / ThisIslandEarth18.jpg
DURATION : 01:26:03.072000000
NUMBER_OF_FRAMES : 161346
NUMBER_OF_BYTES : 123913728
_STATISTICS_WRITING_APP : mkvmerge v7.2.0 ('On Every Street') 64bit built on Sep 13 2014 15:52:10
_STATISTICS_WRITING_DATE_UTC : 2015-01-25 06:44:46
_STATISTICS_TAGS : BPS DURATION NUMBER_OF_FRAMES NUMBER_OF_BYTES
Video
ID : 1
Format : AVC
Format/Info : Advanced Video Codec
Format profile : High@L4.1
Format settings, CABAC : Yes
Format settings, ReFrames : 9 frames
Codec ID : V_MPEG4/ISO/AVC
Duration : 1h 26mn
Bit rate : 6 789 Kbps
Width : 1 280 pixels
Height : 688 pixels
Display aspect ratio : 1.85:1
Frame rate mode : Constant
Frame rate : 23.976 fps
Color space : YUV
Chroma subsampling : 4:2:0
Bit depth : 8 bits
Scan type : Progressive
Bits/(Pixel*Frame) : 0.322
Stream size : 4.00 GiB (93%)
Writing library : x264 core 142 r2389 956c8d8
Encoding settings : cabac=1 / ref=9 / deblock=1:-1:-1 / analyse=0x3:0x133 / me=umh / subme=10 / psy=1 / psy_rd=1.00:0.15 / mixed_ref=1 / me_range=24 / chroma_me=1 / trellis=2 / 8x8dct=1 / cqm=0 / deadzone=21,11 / fast_pskip=1 / chroma_qp_offset=-3 / threads=6 / lookahead_threads=1 / sliced_threads=0 / nr=0 / decimate=1 / interlaced=0 / bluray_compat=0 / constrained_intra=0 / bframes=8 / b_pyramid=2 / b_adapt=2 / b_bias=0 / direct=3 / weightb=1 / open_gop=0 / weightp=2 / keyint=250 / keyint_min=23 / scenecut=40 / intra_refresh=0 / rc_lookahead=60 / rc=2pass / mbtree=1 / bitrate=6789 / ratetol=1.0 / qcomp=0.60 / qpmin=0 / qpmax=69 / qpstep=4 / cplxblur=20.0 / qblur=0.5 / ip_ratio=1.40 / aq=1:1.00
Language : English
Default : Yes
Forced : No
DURATION : 01:25:59.321000000
NUMBER_OF_FRAMES : 123700
NUMBER_OF_BYTES : 4378134697
_STATISTICS_WRITING_APP : mkvmerge v7.2.0 ('On Every Street') 64bit built on Sep 13 2014 15:52:10
_STATISTICS_WRITING_DATE_UTC : 2015-01-25 06:44:46
_STATISTICS_TAGS : BPS DURATION NUMBER_OF_FRAMES NUMBER_OF_BYTES
Audio #1
ID : 2
Format : AC-3
Format/Info : Audio Coding 3
Mode extension : CM (complete main)
Format settings, Endianness : Big
Codec ID : A_AC3
Duration : 1h 26mn
Bit rate mode : Constant
Bit rate : 192 Kbps
Channel(s) : 2 channels
Channel positions : Front: L R
Sampling rate : 48.0 KHz
Bit depth : 16 bits
Compression mode : Lossy
Stream size : 118 MiB (3%)
Title : VO Eraserhead
Language : Russian
Default : Yes
Forced : No
Audio #2
ID : 3
Format : AC-3
Format/Info : Audio Coding 3
Mode extension : CM (complete main)
Format settings, Endianness : Big
Codec ID : A_AC3
Duration : 1h 26mn
Bit rate mode : Constant
Bit rate : 192 Kbps
Channel(s) : 2 channels
Channel positions : Front: L R
Sampling rate : 48.0 KHz
Bit depth : 16 bits
Compression mode : Lossy
Delay relative to video : 1s 200ms
Stream size : 118 MiB (3%)
Language : English
Default : No
Forced : No
Text #1
ID : 4
Format : UTF-8
Codec ID : S_TEXT/UTF8
Codec ID/Info : UTF-8 Plain Text
Title : Eraserhead
Language : Russian
Default : No
Forced : No
Text #2
ID : 5
Format : UTF-8
Codec ID : S_TEXT/UTF8
Codec ID/Info : UTF-8 Plain Text
Language : English
Default : No
Forced : No
Menu
00:00:00.000 : en:Chapter 01
00:04:18.033 : en:Chapter 02
00:08:13.901 : en:Chapter 03
00:12:27.868 : en:Chapter 04
00:15:44.935 : en:Chapter 05
00:21:44.836 : en:Chapter 06
00:25:20.570 : en:Chapter 07
00:30:37.671 : en:Chapter 08
00:35:50.371 : en:Chapter 09
00:41:23.472 : en:Chapter 10
00:45:37.972 : en:Chapter 11
00:50:00.205 : en:Chapter 12
00:56:20.872 : en:Chapter 13
01:02:51.405 : en:Chapter 14
01:07:39.272 : en:Chapter 15
01:13:27.839 : en:Chapter 16
01:19:22.973 : en:Chapter 17
01:25:30.974 : en:Chapter 18

Скриншоты



Показать сообщения:    

Текущее время: 13-Дек 19:04

Часовой пояс: UTC ± 0


Вы не можете начинать темы
Вы не можете отвечать на сообщения
Вы не можете редактировать свои сообщения
Вы не можете удалять свои сообщения
Вы не можете голосовать в опросах
Вы не можете прикреплять файлы к сообщениям
Вы не можете скачивать файлы

!ВНИМАНИЕ!
Сайт не предоставляет электронные версии произведений, а занимается лишь коллекционированием и каталогизацией ссылок, присылаемых и публикуемых на форуме нашими читателями. Если вы являетесь правообладателем какого-либо представленного материала и не желаете, чтобы ссылка на него находилась в нашем каталоге, свяжитесь с нами, и мы незамедлительно удалим ее. Файлы для обмена на трекере предоставлены пользователями сайта, и администрация не несет ответственности за их содержание. Просьба не заливать файлы, защищенные авторскими правами, а также файлы нелегального содержания!