Важное объявление!
У Нас Все раздачи мультитрекерные, при нуле пиров в релизах, можете смело вставать на закачку!
 
Автор Сообщение

HUNTER

Стаж:
4 года 6 месяцев
Сообщений:
60937

Репутация: 101

[+] [-]
Вне форума [Профиль] [ЛС]

Эска и Логи: алхимики сумеречного неба / Escha & Logy no Atelier: Tasogare no Sora no Renkinjutsushi
Страна: Япония
Год выпуска: 2014 г.
Тип: TV
Жанр: Фэнтези
Продолжительность: 12 эп. по 25 мин-Перевод на русский: anipaladin
Режиссер: Ивасаки Ёсиаки
Студия:
Описание: Этот мир повидал много Сумерек и теперь близился его конец. В этом мире, в западных пределах «Сумеречных Земель», жили люди, обязанные своим процветанием использованию алхимии. И чтобы выжить в приближающемся конце света, эти люди направили все свои усилия на поиск и воссоздание утерянных алхимических технологий. Найденная технология прошлой эры накапливалась в исследовательском городе, именуемом «Центральный». Там, все исследования были направлены на то, чтобы остановить приближение конца. Главные герои - молодой человек Логи, из «Центрального», и девушка по имени Эска, живущая в маленьком городке на границе. Желая использовать свои знания древней алхимии, чтобы помочь другим, Эска попадает в Отдел Развития. А Лодзи, изучив новейшие алхимические технологии в «Центральном», просит перевести его в город, где не хватает специалистов, чтобы найти применение своим способностям. Там, он попадает в Отдел Развития, где и встречает Эску. Они дают обещание, использовать свои знания вместе и принести успех Отделу Развития.
Равка: Leopard-Raws
Качество: HDTVRip
Хардсаб: Отсутствует
Формат видео: mp4
Видео: AVC, 8 bits, 1280x720, 1442 kbps, 23.976 fps, (16:9)
Аудио:
1. JP - AAC, 192 kbps, 48.0 Hz, 2 ch

Список эпизодов

01. Youkoso Atelier e!

Скриншоты

MediaInfo

Общее
Полное имя : D:\[Leopard-Raws]\[Leopard-Raws] Escha and Logy no Atelier - Tasogare no Sora no Renkinjutsushi\[Leopard-Raws] Escha and Logy no Atelier - Tasogare no Sora no Renkinjutsushi - 01 RAW (MX 1280x720 x264 AAC).mp4
Формат : MPEG-4
Профиль формата : Base Media
Идентификатор кодека : isom
Размер файла : 281 Мбайт
Продолжительность : 24 м.
Режим общего битрейта : Переменный
Общий поток : 1637 Кбит/сек
Дата кодирования : UTC 2014-04-10 15:36:30
Дата пометки : UTC 2014-04-10 15:36:30
Видео
Идентификатор : 1
Формат : AVC
Формат/Информация : Advanced Video Codec
Профиль формата : High@L4.1
Параметр CABAC формата : Да
Параметр ReFrames формата : 4 кадра
Идентификатор кодека : avc1
Идентификатор кодека/Информация : Advanced Video Coding
Продолжительность : 23 м.
Битрейт : 1442 Кбит/сек
Максимальный битрейт : 8737 Кбит/сек
Ширина : 1280 пикселей
Высота : 720 пикселей
Соотношение сторон : 16:9
Режим частоты кадров : Постоянный
Частота кадров : 23,976 кадра/сек
Цветовое пространство : YUV
Субдискретизация насыщенности : 4:2:0
Битовая глубина : 8 бит
Тип развёртки : Прогрессивная
Бит/(Пиксели*Кадры) : 0.065
Размер потока : 247 Мбайт (88%)
Заголовок : 264:fps=23.976@GPAC0.5.1-DEV-rev4283
Библиотека кодирования : x264 core 129 r2245+729M 1a52e03
Настройки программы : cabac=1 / ref=4 / deblock=1:1:-1 / analyse=0x3:0x113 / me=umh / subme=9 / psy=1 / fade_compensate=0.00 / psy_rd=1.00:0.00 / mixed_ref=1 / me_range=24 / chroma_me=1 / trellis=2 / 8x8dct=1 / cqm=0 / deadzone=21,11 / fast_pskip=1 / chroma_qp_offset=-2 / threads=8 / lookahead_threads=1 / sliced_threads=0 / nr=0 / decimate=1 / interlaced=0 / bluray_compat=0 / constrained_intra=0 / fgo=0 / bframes=9 / b_pyramid=2 / b_adapt=2 / b_bias=0 / direct=1 / weightb=1 / open_gop=0 / weightp=2 / keyint=240 / keyint_min=24 / scenecut=40 / intra_refresh=0 / rc=crf / mbtree=0 / crf=19.0 / qcomp=0.72 / qpmin=0 / qpmax=69 / qpstep=4 / ip_ratio=1.40 / pb_ratio=1.30 / aq=1:0.85
Дата кодирования : UTC 2014-04-10 15:36:30
Дата пометки : UTC 2014-04-10 15:36:34
Основные цвета : BT.709
Характеристики трансфера : BT.709
Коэффициенты матрицы : BT.709
Аудио
Идентификатор : 2
Формат : AAC
Формат/Информация : Advanced Audio Codec
Профиль формата : LC
Идентификатор кодека : 40
Продолжительность : 24 м.
Вид битрейта : Переменный
Битрейт : 192 Кбит/сек
Максимальный битрейт : 235 Кбит/сек
Каналы : 2 канала
Расположение каналов : Front: L R
Частота : 48,0 КГц
Метод сжатия : С потерями
Размер потока : 32,8 Мбайт (12%)
Язык : Japanese
Дата кодирования : UTC 2014-04-10 14:04:05
Дата пометки : UTC 2014-04-10 15:36:34

_________________
Показать сообщения:    

Текущее время: Сегодня 22:29

Часовой пояс: GMT



Вы не можете начинать темы
Вы не можете отвечать на сообщения
Вы не можете редактировать свои сообщения
Вы не можете удалять свои сообщения
Вы не можете голосовать в опросах
Вы не можете прикреплять файлы к сообщениям
Вы не можете скачивать файлы
Наши партнеры: интернет магазин Ивановского трикотажа textilla.ru