Эра драконов / Age of the Dragons (Pайан Литтл / Rуan Little) [2011, фэнтези, боевик, триллер, BDRip] MVO :: Ивановский Торрент трекер
Важное объявление!
У Нас Все раздачи мультитрекерные, при нуле пиров в релизах, можете смело вставать на закачку!
Статистика раздачи
Размер:     |    Зарегистрирован:     |    Скачан:     |   
Нет
 
     
 
 
Автор Сообщение

димитри37

Стаж:
4 года 3 месяца
Сообщений:
1236

Репутация: 127

[+] [-]
Вне форума [Профиль] [ЛС]

Эра драконов / Age of the Dragons
Страна: США
Жанр: фэнтези, боевик, триллер
Год выпуска: 2011
Продолжительность: 01:35:23
Перевод: Профессиональный (многоголосый закадровый)
Cубтитры: нет
Режиссер: Pайан Литтл / Rуan Little
В ролях: Дэнни Гловер, Винни Джонс, Кори Севьер, София Пернас, Ларри Бэгби, Джон Кепа Крус, Дэвид Морган,Рафаэль Круз, Яник Блэнд, Уэйн Бреннан
Описание: Герои фильма живут в средневековом мире, где существуют драконы. Капитан Ахав (Денни Гловер) одержим охотой за Белым Драконом, который убил его семью, а самого Ахава обезобразил шрамами. В фильме есть харизматичный гарпунер Измаил, а вместе с Ахавом охотится на Белого Дракона его приемная дочь Рейчел. Ей придется выбирать идти до конца за одержимым убийством заклятого врага отцом или начать новую жизнь с Измаилом...

Качество видео: BDRip
Формат видео: MKV
Видео: 1024x436 (2.37:1), 23.976 fps, H264 ~ 1800 kbps avg, 0.168 bit/pixel
Аудио: 48 kHz, AC3, 6 ch, 384.00 kbps

MediaInfo

eneral
Unique ID : 187218007998407554436405949062549948994 (0x8CD8E07436786543857E648989C14A42)
Complete name : E:\Kino\Эра драконов(2011)_BDRip-AVC.mkv
Format : Matroska
Format version : Version 2
File size : 1.46 GiB
Duration : 1h 35mn
Overall bit rate : 2 184 Kbps
Movie name : Jera.drakonov.2011.BDRip-AVC.1,46
Encoded date : UTC 2011-12-19 08:09:59
Writing application : mkvmerge v5.2.0 ('I can't explain') built on Dec 18 2011 18:12:03
Writing library : libebml v1.2.3 + libmatroska v1.3.0
Video
ID : 1
Format : AVC
Format/Info : Advanced Video Codec
Format profile : High@L4.1
Format settings, CABAC : Yes
Format settings, ReFrames : 11 frames
Codec ID : V_MPEG4/ISO/AVC
Duration : 1h 35mn
Bit rate : 1 800 Kbps
Width : 1 024 pixels
Height : 436 pixels
Display aspect ratio : 2.35:1
Frame rate mode : Constant
Frame rate : 23.976 fps
Color space : YUV
Chroma subsampling : 4:2:0
Bit depth : 8 bits
Scan type : Progressive
Bits/(Pixel*Frame) : 0.168
Stream size : 1.17 GiB (80%)
Title : Источник Blu-ray
Writing library : x264 core 119 r2106 07efeb4
Encoding settings : cabac=1 / ref=11 / deblock=1:-2:-1 / analyse=0x3:0x113 / me=umh / subme=9 / psy=1 / psy_rd=1.00:0.10 / mixed_ref=1 / me_range=32 / chroma_me=1 / trellis=1 / 8x8dct=1 / cqm=0 / deadzone=21,11 / fast_pskip=0 / chroma_qp_offset=-3 / threads=3 / sliced_threads=0 / nr=0 / decimate=1 / interlaced=0 / bluray_compat=0 / constrained_intra=0 / bframes=10 / b_pyramid=2 / b_adapt=1 / b_bias=0 / direct=3 / weightb=1 / open_gop=0 / weightp=0 / keyint=240 / keyint_min=23 / scenecut=40 / intra_refresh=0 / rc_lookahead=60 / rc=2pass / mbtree=1 / bitrate=1800 / ratetol=1.0 / qcomp=0.60 / qpmin=0 / qpmax=69 / qpstep=4 / cplxblur=20.0 / qblur=0.5 / ip_ratio=1.40 / aq=1:1.00
Language : English
Default : Yes
Forced : No
Audio
ID : 2
Format : AC-3
Format/Info : Audio Coding 3
Mode extension : CM (complete main)
Format settings, Endianness : Big
Codec ID : A_AC3
Duration : 1h 35mn
Bit rate mode : Constant
Bit rate : 384 Kbps
Channel(s) : 6 channels
Channel positions : Front: L C R, Side: L R, LFE
Sampling rate : 48.0 KHz
Bit depth : 16 bits
Compression mode : Lossy
Stream size : 262 MiB (18%)
Title : Источник Blu-ray
Language : Russian
Default : Yes
Forced : No
Menu
00:00:00.000 : ru:00:00:00.000000000
00:05:00.000 : :00:05:00.000000000
00:10:00.000 : :00:10:00.000000000
00:15:00.000 : :00:15:00.000000000
00:20:00.000 : :00:20:00.000000000
00:25:00.000 : :00:25:00.000000000
00:30:00.000 : :00:30:00.000000000
00:35:00.000 : :00:35:00.000000000
00:40:00.000 : :00:40:00.000000000
00:45:00.000 : :00:45:00.000000000
00:50:00.000 : :00:50:00.000000000
00:55:00.000 : :00:55:00.000000000
01:00:00.000 : :01:00:00.000000000
01:05:00.000 : :01:05:00.000000000
01:10:00.000 : :01:10:00.000000000
01:15:00.000 : :01:15:00.000000000
01:20:00.000 : :01:20:00.000000000
01:25:00.000 : :01:25:00.000000000
01:30:00.000 : :01:30:00.000000000

Скриншот c названием фильма

Скриншоты

-
Показать сообщения:    

Текущее время: Сегодня 00:24

Часовой пояс: GMT



Вы не можете начинать темы
Вы не можете отвечать на сообщения
Вы не можете редактировать свои сообщения
Вы не можете удалять свои сообщения
Вы не можете голосовать в опросах
Вы не можете прикреплять файлы к сообщениям
Вы не можете скачивать файлы