Важное объявление!
У Нас Все раздачи мультитрекерные, при нуле пиров в релизах, можете смело вставать на закачку!
Статистика раздачи
Размер:     |    Зарегистрирован:     |    Скачан:     |   
Нет
 
     
 
 
Автор Сообщение

димитри37

Стаж:
4 года 5 месяцев
Сообщений:
1236

Репутация: 127

[+] [-]
Вне форума [Профиль] [ЛС]

Эра динозавров / Age of Dinosaurs
Страна: США
Жанр: боевик
Год выпуска: 2013
Продолжительность: 01:28:21
Перевод: Одноголосый закадровый Васька Куролесов, по субтитрам zelesk
Cубтитры: нет
Режиссер: Джозеф Дж. Лосон / Joseph J. Lawson
В ролях: Джиллиан Роуз Рид, Трит Уильямс, Ронни Кокс, Андрэй Джонсон, Джош Аллен, Хосе Росете, Макс Ария, Дженнифер Джейкобс, Роджер Лим, Артур Ричардсон
Описание: Используя технологию регенерации плоти, биотехнологическая фирма создаёт выставку с настоящими живыми динозаврами. Но животные сбегают из музея начинаются терроризировать Лос-Анджелес. Бывший пожарный пытается спасти свою дочь из хаоса, к которому привела выставка.

Качество видео: DVDRip
Формат видео: AVI
Видео: 640x352 (1.82:1), 23.976 fps, XviD MPEG-4 ~ 969 kbps avg, 0.18 bit/pixel
Аудио: 44 kHz, MPEG Layer 3, 2 ch, 128.00 kbps avg

MediaInfo

I:\Age of Dinosaurs_2013_KypoJIecoB.avi
General
Complete name : I:\Age of Dinosaurs_2013_KypoJIecoB.avi
Format : AVI
Format/Info : Audio Video Interleave
File size : 699 MiB
Duration : 1h 28mn
Overall bit rate : 1 106 Kbps
Writing application : VirtualDubMod 1.5.10.2 (build 2540/release)
Writing library : VirtualDubMod build 2540/release
Video #0
ID : 0
Format : MPEG-4 Visual
Format profile : Advanced Simple@L5
Format settings, BVOP : 2
Format settings, QPel : No
Format settings, GMC : No warppoints
Format settings, Matrix : Default (H.263)
Muxing mode : Packed bitstream
Codec ID : XVID
Codec ID/Hint : XviD
Duration : 1h 28mn
Bit rate : 969 Kbps
Width : 640 pixels
Height : 352 pixels
Display aspect ratio : 16:9
Frame rate : 23.976 fps
Color space : YUV
Chroma subsampling : 4:2:0
Bit depth : 8 bits
Scan type : Progressive
Compression mode : Lossy
Bits/(Pixel*Frame) : 0.179
Stream size : 612 MiB (88%)
Writing library : XviD 1.2.0.dev47 (UTC 2006-11-01)
Audio #1
ID : 1
Format : MPEG Audio
Format version : Version 1
Format profile : Layer 3
Codec ID : 55
Codec ID/Hint : MP3
Duration : 1h 28mn
Bit rate mode : Constant
Bit rate : 128 Kbps
Channel(s) : 2 channels
Sampling rate : 44.1 KHz
Compression mode : Lossy
Stream size : 80.9 MiB (12%)
Alignment : Split accross interleaves
Interleave, duration : 42 ms (1.00 video frame)
Interleave, preload duration : 500 ms

Скриншот c названием фильма

Скриншоты

-
Показать сообщения:    

Текущее время: Сегодня 04:28

Часовой пояс: GMT



Вы не можете начинать темы
Вы не можете отвечать на сообщения
Вы не можете редактировать свои сообщения
Вы не можете удалять свои сообщения
Вы не можете голосовать в опросах
Вы не можете прикреплять файлы к сообщениям
Вы не можете скачивать файлы