Важное объявление!
У Нас Все раздачи мультитрекерные, при нуле пиров в релизах, можете смело вставать на закачку!
Статистика раздачи
Размер:     |    Зарегистрирован:     |    Скачан:     |   
Нет
 
     
 
 
Автор Сообщение

HUNTER

Стаж:
5 лет
Сообщений:
67935

Репутация: 101

[+] [-]
Вне форума [Профиль] [ЛС]

Эпохальные полеты НАСА / NASA's Greatest Missions
Год выпуска: 2012
Страна: Великобритания
Жанр: Документальный сериал
Продолжительность: 6 серий по 44 мин.
Перевод: Одноголосый закадровый
Русские субтитры: нет
Режиссер: Кейт Боттинг/Kate Botting Discovery Science
Описание: 3 ... 2 ... 1 ... подготовиться к взлету с Земли вместе с NASA. Шесть частей серии хроники показывает подноготную самых эпических усилий НАСА. Отмечая 50-летие космического агентства, выполните баллистический полет вместе Джоном Гленном на орбиту Земли, совершите первые исторические шаги вместе с Нилом Армстронгом на Луне , выйдете в открытый космос для ремонта Хаббла и многое другое!
Сериал содержит рассказы астронавтов и инженеров , которые были там , в том числе эксклюзивные интервью с известными астронавтами, такими как Джон Гленн, Базз Олдрин и Чарли Херцог , плюс недавно оцифрованные, оригинальные кадры миссий из секретных съемок НАСА.
Сэмпл: http://multi-up.com/957221
качество: DVB
формат: TS/M2TS
Видео: AVC, аноморф. 720х576, 4:3, 1700 Кбит/сек, 25 fps
Аудио 1 (Russian): MPEG Audio, 160 Кбит/сек, 48 КГц, 2 канала
Аудио 2 (English): MPEG Audio, 160 Кбит/сек, 48 КГц, 2 канала

Список выпусков/серий

01с. Эпохальные полеты НАСА - Обычный супермен / Ordinary Supermen
02с. Эпохальные полеты НАСА - Друзья и соперники / Friends and Rivals
03с. Эпохальные полеты НАСА - Посадка Орла / Landing the Eagle
04с. Эпохальные полеты НАСА – Исследователи / The Explorers
05с. Эпохальные полеты НАСА - Челнок / The Shuttle
06с. Эпохальные полеты НАСА - Дом в космосе / A Home In Space

MediaInfo

ОбщееИдентификатор : 16 (0x10)Полное имя : NASA's Greatest Missions_Part 4 The Explorers.tsФормат : MPEG-TSРазмер файла : 670 МбайтПродолжительность : 44 м.Режим общего битрейта : ПеременныйОбщий поток : 2128 Кбит/сек
ВидеоИдентификатор : 1407 (0x57F)Идентификатор меню : 407 (0x197)Формат : AVCФормат/Информация : Advanced Video CodecПрофиль формата : Main@L3.0Параметр CABAC формата : ДаПараметр ReFrames формата : 3 кадраИдентификатор кодека : 27Продолжительность : 44 м.Битрейт : 1700 Кбит/секШирина : 720 пикселейВысота : 576 пикселейСоотношение сторон : 4:3Частота кадров : 25,000 кадров/секСтандарт вещания : PALЦветовое пространство : YUVСубдискретизация насыщенности : 4:2:0Битовая глубина : 8 битТип развёртки : ЧересстрочнаяПорядок развёртки : Верхнее поле первоеБит/(Пиксели*Кадры) : 0.164Размер потока : 535 Мбайт (80%)Основные цвета : BT.601 PALХарактеристики трансфера : BT.470 System B, BT.470 System GКоэффициенты матрицы : BT.601
Аудио #1Идентификатор : 2407 (0x967)Идентификатор меню : 407 (0x197)Формат : MPEG AudioВерсия формата : Version 1Профиль формата : Layer 2Идентификатор кодека : 4Продолжительность : 44 м.Вид битрейта : ПостоянныйБитрейт : 160 Кбит/секКаналы : 2 каналаЧастота : 48,0 КГцМетод сжатия : С потерямиЗадержка видео : 65 мс.Размер потока : 50,4 Мбайт (8%)Язык : stdЯзык, дополнительно : Clean effects
Аудио #2Идентификатор : 3407 (0xD4F)Идентификатор меню : 407 (0x197)Формат : MPEG AudioВерсия формата : Version 1Профиль формата : Layer 2Идентификатор кодека : 4Продолжительность : 44 м.Вид битрейта : ПостоянныйБитрейт : 160 Кбит/секКаналы : 2 каналаЧастота : 48,0 КГцМетод сжатия : С потерямиЗадержка видео : 65 мс.Размер потока : 50,4 Мбайт (8%)Язык : EnglishЯзык, дополнительно : Clean effects

Скриншоты


_________________
Показать сообщения:    

Текущее время: Сегодня 08:57

Часовой пояс: GMT



Вы не можете начинать темы
Вы не можете отвечать на сообщения
Вы не можете редактировать свои сообщения
Вы не можете удалять свои сообщения
Вы не можете голосовать в опросах
Вы не можете прикреплять файлы к сообщениям
Вы не можете скачивать файлы