Ивановский Торрент трекер
Яндекс.Погода
 

[Цитировать]
HUNTER


Эпик | Epic
«Исследуй мир за пределами своего воображения»
- Страна: США
Жанр: фэнтези, приключения, семейный
Продолжительность: 01:42:29
Год выпуска: 2013
Перевод: Профессиональный (дублированный) BD EUR
Перевод 2: Авторский, одноголосый А. Гаврилов
Субтитры: Rus, Ukr, Eng SRT
Режиссёр: Крис Уэдж / Chris Wedge
Роли озвучивали: Аманда Сайфред, Джош Хатчерсон, Колин Фаррелл, Джейсон Судейкис, Азис Ансари, Крис О'Дауд, Кристоф Вальц, Стивен Тайлер, Бейонсе Ноулз, Эллисон Биллс, Блейк Андерсон...
Роли дублировали: Юлия Савичева, Петр Иващенко, Илья Исаев, Денис Беспалый, Елена Харитонова, Никита Семенов-Прозоровский, Диомид Виноградов, Дмитрий Поляновский, Денис Некрасов, Андрей Бархударов, Константин Карасик, Антон Эльдаров, Мария Овчинникова, Вероника Саркисова-ОписаниеПосле долгой разлуки юная Мэри Кэтрин возвращается в дом, где отшельником живет ее отец, безумный профессор Бомба. Однако тот совсем не обращает внимания на дочь и одержим лишь одной идеей — изучить скрытый от посторонних глаз таинственный лесной мир. Девушка отказывается верить, что под ногами человечества идет вечная борьба между армиями, воюющими на сторонах добра и зла. Чудесным образом Мэри Кэтрин уменьшается в размерах и знакомится с маленькими воинами. Теперь от нее зависит спасение не только волшебного лесного, но и реального человеческого мира.-
«Эпик» (Epic) — американский полнометражный компьютерный мультипликационный фильм, по мотивам книги Уильяма Джойса «Лифмены и добрые смелые жуки». Совместное производство мультипликационной студии Blue Sky Studios и кино-объединения 20th Century Fox Animation
Релиз:

Сзмпл

IMDb: 6.60 (14 946)
Качество: BDRip-AVC Epic.2013.BDRemux.1080p.Rus.Eng.Neoclub
Формат: MKV
Видео: AVC 2779 Kbps 1152 x 480 (2.400) 23.976 fps
Аудио: AC-3 448 Kbps 6 channels, 48.0 KHz Rus BD EUR
Аудио 2: AC-3 EX 448 Kbps 6 channels, 48.0 KHz AVO Rus А. Гаврилов
Аудио 3: AC-3 448 Kbps 6 channels, 48.0 KHz Ukr BD EUR
Аудио 4: AC-3 EX 448 Kbps 6 channels, 48.0 KHz Eng
Субтитры: Русские (полные), Украинские (полные), English (Full, SDH) SRT

MI | Log

Log
raw [info]: 1072x448p 1:1 @ 2500000/104271 fps (cfr)
x264 [info]: using SAR=1/1
x264 [info]: using cpu capabilities: MMX2 SSE2Fast SSSE3 SSE4.2 AVX
x264 [info]: profile High, level 4.1
x264 [info]: frame I:1222 Avg QP:14.54 size: 82081
x264 [info]: frame P:36730 Avg QP:16.40 size: 29636
x264 [info]: frame B:109480 Avg QP:19.35 size: 9279
x264 [info]: consecutive B-frames: 3.1% 3.4% 12.8% 33.0% 19.7% 23.2% 2.4% 1.2% 0.3% 0.3% 0.1% 0.2% 0.2%
x264 [info]: mb I I16..4: 5.5% 72.1% 22.4%
x264 [info]: mb P I16..4: 1.0% 16.1% 2.5% P16..4: 27.2% 31.8% 12.5% 2.9% 0.4% skip: 5.8%
x264 [info]: mb B I16..4: 0.2% 2.3% 0.3% B16..8: 30.7% 19.5% 3.4% direct: 5.3% skip:38.2% L0:38.8% L1:45.0% BI:16.2%
x264 [info]: 8x8 transform intra:81.0% inter:55.9%
x264 [info]: direct mvs spatial:99.9% temporal:0.1%
x264 [info]: coded y,uvDC,uvAC intra: 91.0% 90.8% 73.6% inter: 21.3% 19.3% 5.9%
x264 [info]: i16 v,h,dc,p: 24% 9% 4% 64%
x264 [info]: i8 v,h,dc,ddl,ddr,vr,hd,vl,hu: 8% 9% 5% 10% 13% 12% 14% 13% 16%
x264 [info]: i4 v,h,dc,ddl,ddr,vr,hd,vl,hu: 7% 8% 4% 9% 17% 14% 16% 11% 14%
x264 [info]: i8c dc,h,v,p: 43% 23% 16% 18%
x264 [info]: Weighted P-Frames: Y:4.8% UV:3.1%
x264 [info]: ref P L0: 51.7% 10.8% 16.9% 6.0% 4.2% 2.8% 2.4% 1.3% 1.3% 1.1% 1.1% 0.3% 0.0%
x264 [info]: ref B L0: 79.5% 9.7% 4.4% 2.1% 1.3% 1.0% 0.8% 0.5% 0.3% 0.2%
x264 [info]: ref B L1: 94.2% 5.8%
x264 [info]: kb/s:2868.29
x264 [total]: encoded 147432 frames, 10.35 fps, 2868.29 kb/s, duration 3:57:23.07
Format : Matroska
Format version : Version 4 / Version 2
File size : 3.34 GiB
Duration : 1h 42mn
Overall bit rate : 4 663 Kbps
Encoded date : UTC 2015-06-06 10:18:30
Writing application : mkvmerge v6.7.0 ('Back to the Ground') 32bit built on Jan 8 2014 15:03:17
Writing library : libebml v1.3.0 + libmatroska v1.4.1
Video
ID : 1
Format : AVC
Format/Info : Advanced Video Codec
Format profile : High@L4.1
Format settings, CABAC : Yes
Format settings, ReFrames : 11 frames
Codec ID : V_MPEG4/ISO/AVC
Duration : 1h 42mn
Bit rate : 2 779 Kbps
Width : 1 152 pixels
Height : 480 pixels
Display aspect ratio : 2.40:1
Frame rate mode : Constant
Frame rate : 23.976 fps
Color space : YUV
Chroma subsampling : 4:2:0
Bit depth : 8 bits
Scan type : Progressive
Bits/(Pixel*Frame) : 0.210
Stream size : 1.99 GiB (60%)
Title : Epic (2013) [rutracker.org]
Writing library : x264 core 146 r2538kMod 121396c
Encoding settings : cabac=1 / ref=11 / deblock=1:-2:-1 / analyse=0x3:0x133 / me=umh / subme=11 / psy=1 / fade_compensate=0.00 / psy_rd=1.00:0.05 / mixed_ref=1 / me_range=32 / chroma_me=1 / trellis=2 / 8x8dct=1 / cqm=0 / deadzone=21,11 / fast_pskip=0 / chroma_qp_offset=-3 / threads=12 / lookahead_threads=3 / sliced_threads=0 / nr=0 / decimate=1 / interlaced=0 / bluray_compat=0 / constrained_intra=0 / fgo=0 / bframes=12 / b_pyramid=2 / b_adapt=2 / b_bias=0 / direct=3 / weightb=1 / open_gop=0 / weightp=2 / keyint=250 / keyint_min=23 / scenecut=40 / intra_refresh=0 / rc_lookahead=80 / rc=crf / mbtree=0 / crf=17.2000 / qcomp=0.60 / qpmin=0 / qpmax=69 / qpstep=4 / vbv_maxrate=50000 / vbv_bufsize=62500 / crf_max=0.0 / nal_hrd=none / filler=0 / ip_ratio=1.40 / pb_ratio=1.30 / aq=3:0.90
Language : English
Default : Yes
Forced : No
Audio #1
ID : 2
Format : AC-3
Format/Info : Audio Coding 3
Mode extension : CM (complete main)
Format settings, Endianness : Big
Codec ID : A_AC3
Duration : 1h 42mn
Bit rate mode : Constant
Bit rate : 448 Kbps
Channel(s) : 6 channels
Channel positions : Front: L C R, Side: L R, LFE
Sampling rate : 48.0 KHz
Bit depth : 16 bits
Compression mode : Lossy
Stream size : 328 MiB (10%)
Title : DUB BD EUR
Language : Russian
Default : Yes
Forced : No
Audio #2
ID : 3
Format : AC-3
Format/Info : Audio Coding 3
Mode extension : CM (complete main)
Format settings, Endianness : Big
Codec ID : A_AC3
Duration : 1h 42mn
Bit rate mode : Constant
Bit rate : 448 Kbps
Channel(s) : 6 channels
Channel positions : Front: L C R, Side: L R, LFE
Sampling rate : 48.0 KHz
Bit depth : 16 bits
Compression mode : Lossy
Stream size : 328 MiB (10%)
Title : AVO [A. Gavrilov] EX
Language : Russian
Default : No
Forced : No
Audio #3
ID : 4
Format : AC-3
Format/Info : Audio Coding 3
Mode extension : CM (complete main)
Format settings, Endianness : Big
Codec ID : A_AC3
Duration : 1h 42mn
Bit rate mode : Constant
Bit rate : 448 Kbps
Channel(s) : 6 channels
Channel positions : Front: L C R, Side: L R, LFE
Sampling rate : 48.0 KHz
Bit depth : 16 bits
Compression mode : Lossy
Stream size : 328 MiB (10%)
Title : DUB BD EUR
Language : Ukrainian
Default : No
Forced : No
Audio #4
ID : 5
Format : AC-3
Format/Info : Audio Coding 3
Mode extension : CM (complete main)
Format settings, Endianness : Big
Codec ID : A_AC3
Duration : 1h 42mn
Bit rate mode : Constant
Bit rate : 448 Kbps
Channel(s) : 6 channels
Channel positions : Front: L C R, Side: L R, LFE
Sampling rate : 48.0 KHz
Bit depth : 16 bits
Compression mode : Lossy
Stream size : 328 MiB (10%)
Title : Original EX
Language : English
Default : No
Forced : No
Text #1
ID : 6
Format : UTF-8
Codec ID : S_TEXT/UTF8
Codec ID/Info : UTF-8 Plain Text
Title : Full
Language : Russian
Default : No
Forced : No
Text #2
ID : 7
Format : UTF-8
Codec ID : S_TEXT/UTF8
Codec ID/Info : UTF-8 Plain Text
Title : Full
Language : Ukrainian
Default : No
Forced : No
Text #3
ID : 8
Format : UTF-8
Codec ID : S_TEXT/UTF8
Codec ID/Info : UTF-8 Plain Text
Title : Full
Language : English
Default : No
Forced : No
Text #4
ID : 9
Format : UTF-8
Codec ID : S_TEXT/UTF8
Codec ID/Info : UTF-8 Plain Text
Title : SDH
Language : English
Default : No
Forced : No
Menu
00:00:00.000 : en:Chapter 1
00:04:48.205 : en:Chapter 2
00:09:49.589 : en:Chapter 3
00:13:05.535 : en:Chapter 4
00:16:50.051 : en:Chapter 5
00:20:36.193 : en:Chapter 6
00:24:09.490 : en:Chapter 7
00:28:17.237 : en:Chapter 8
00:31:31.848 : en:Chapter 9
00:34:06.586 : en:Chapter 10
00:38:21.591 : en:Chapter 11
00:43:17.428 : en:Chapter 12
00:44:58.029 : en:Chapter 13
00:47:04.739 : en:Chapter 14
00:49:07.945 : en:Chapter 15
00:52:40.699 : en:Chapter 16
00:56:28.885 : en:Chapter 17
00:59:52.214 : en:Chapter 18
01:03:27.387 : en:Chapter 19
01:07:48.940 : en:Chapter 20
01:14:36.472 : en:Chapter 21
01:18:24.950 : en:Chapter 22
01:20:13.100 : en:Chapter 23
01:24:03.038 : en:Chapter 24
01:25:19.281 : en:Chapter 25
01:27:34.040 : en:Chapter 26
01:32:05.520 : en:Chapter 27
01:34:12.480 : en:Chapter 28

Скриншоты







Показать сообщения:    

Текущее время: 18-Дек 20:38

Часовой пояс: UTC ± 0


Вы не можете начинать темы
Вы не можете отвечать на сообщения
Вы не можете редактировать свои сообщения
Вы не можете удалять свои сообщения
Вы не можете голосовать в опросах
Вы не можете прикреплять файлы к сообщениям
Вы не можете скачивать файлы

!ВНИМАНИЕ!
Сайт не предоставляет электронные версии произведений, а занимается лишь коллекционированием и каталогизацией ссылок, присылаемых и публикуемых на форуме нашими читателями. Если вы являетесь правообладателем какого-либо представленного материала и не желаете, чтобы ссылка на него находилась в нашем каталоге, свяжитесь с нами, и мы незамедлительно удалим ее. Файлы для обмена на трекере предоставлены пользователями сайта, и администрация не несет ответственности за их содержание. Просьба не заливать файлы, защищенные авторскими правами, а также файлы нелегального содержания!