Ивановский Торрент трекер
Яндекс.Погода
 

[Цитировать]
HUNTER

| Все релизы мультфильма || BDRemux 1080p, 27.92 GB |- P R E S E N T SЭпик / Epic- Страна: США
Жанр: мультфильм, фэнтези, приключения, семейный
Продолжительность: 01:42:29
Год выпуска: 2013
Перевод 1: Профессиональный (полное дублирование)
Перевод 2: Авторский (одноголосый закадровый) Андрей Гаврилов
Субтитры: есть-Режиссёр: Крис Уэдж / Chris Wedge
Роли озвучивали: Аманда Сайфред, Джош Хатчерсон, Колин Фаррелл, Джейсон Судейкис, Азис Ансари, Крис О'Дауд, Кристоф Вальц, Стивен Тайлер, Бейонсе Ноулз, Эллисон Биллс, Блейк Андерсон...
Роли дублировали: Юлия Савичева, Петр Иващенко, Илья Исаев, Денис Беспалый, Елена Харитонова, Никита Семенов-Прозоровский, Диомид Виноградов, Дмитрий Поляновский, Денис Некрасов, Андрей Бархударов, Константин Карасик, Антон Эльдаров, Мария Овчинникова, Вероника Саркисова- | | -Описание: После долгой разлуки юная Мэри Кэтрин возвращается в дом, где отшельником живет ее отец, безумный профессор Бомба. Однако тот совсем не обращает внимания на дочь и одержим лишь одной идеей — изучить скрытый от посторонних глаз таинственный лесной мир. Девушка отказывается верить, что под ногами человечества идет вечная борьба между армиями, воюющими на сторонах добра и зла. Чудесным образом Мэри Кэтрин уменьшается в размерах и знакомится с маленькими воинами. Теперь от нее зависит спасение не только волшебного лесного, но и реального человеческого мира...-Доп. информация: - BDRemux 1920x1080 (16/9) сделан с Blu-Ray диска Epic 2013 1080p Blu-ray AVC DTS-HD MA 7.1-HDWinG.
- Перевод Андрея Гаврилова осуществлен в октябре 2013 г. силами форума HDTRACKER по заказу: therox, Xerman13, shitman82, kinobbk, _MyxAmoP_, SavineX, Brown15, foxlight, mamachucha66, -Джосс-, rydanes, dunhill200, Chistobaev, lexal, karantin66, Vimann, chef&chef, olegsoleg, Role, nimph, Guyver, v111o, KpucTo161, ASUKEVICH, Диммон, Pain_70, overdose, carter64, Slimka, furria62, hulahup, phaeton77.
- Звуковая дорожка с переводом А. Гаврилова получена путем наложения чистого голоса на центральный канал декодированной оригинальной (английской) DTS-HD MA 7.1 (strange setup) дорожки - xfiles.
- Так же отдельное спасибо xfiles за подготовку английских субтитров.
-Сэмпл/Sample
(290 MB, 1 минута)-Качество: BDRemux 1080p
Формат: MKV
Видео: 1920x1080 (16/9), 23,976 fps, ~27996 kbps avg, 0.563 bit/pixel
Аудио #1: Русский, DTS / 5.1 / 48 kHz / 768 kbps / 24-bit - Дубляж | BD EUR | Студия Сентрал Продакшн Интернейшнл Груп
Аудио #2: Русский, DTS-HD MA / 7.1 / 48 kHz / 4979 kbps / 24-bit (DTS Core: 5.1-ES / 48 kHz / 1509 kbps / 24-bit) - AVO | Андрей Гаврилов
Аудио #3: Украинский, AC3, 6 ch, 48 kHz, 448 kbps - Дубляж | BD EUR
Аудио #4: English, DTS-HD MA / 7.1 / 48 kHz / 4912 kbps / 24-bit (DTS Core: 5.1-ES / 48 kHz / 1509 kbps / 24-bit) - Original
Субтитры: Русские (полные), Украинские (полные), English (Full, SDH)
Навигация по главам: есть (28 не именованных глав)

BDInfo исходного Blu-Ray диска

DISC INFO:
Disc Title: Epic 2012 1080p Blu-ray AVC DTS-HD MA 5.1-HDWinGDisc Size: 43 012 936 229 bytesProtection: AACSBD-Java: YesBDInfo: 0.5.8
PLAYLIST REPORT:
Name: 00800.MPLSLength: 1:42:29.142 (h:m:s.ms)Size: 30 207 387 648 bytesTotal Bitrate: 39,30 Mbps
VIDEO:
Codec Bitrate Description----- ------- -----------MPEG-4 AVC Video 27996 kbps 1080p / 23,976 fps / 16:9 / High Profile 4.1
AUDIO:
Codec Language Bitrate Description----- -------- ------- -----------DTS-HD Master Audio English 4912 kbps 7.1 / 48 kHz / 4912 kbps / 24-bit (DTS Core: 5.1-ES / 48 kHz / 1509 kbps / 24-bit)Dolby Digital Audio English 448 kbps 5.1 / 48 kHz / 448 kbpsDolby Digital Audio Spanish 448 kbps 5.1 / 48 kHz / 448 kbpsDolby Digital Audio French 448 kbps 5.1 / 48 kHz / 448 kbpsDolby Digital Audio Portuguese 448 kbps 5.1 / 48 kHz / 448 kbpsDolby Digital Audio Croatian 448 kbps 5.1 / 48 kHz / 448 kbpsDolby Digital Audio Czech 448 kbps 5.1 / 48 kHz / 448 kbpsDolby Digital Audio Slovak 448 kbps 5.1 / 48 kHz / 448 kbpsDolby Digital Audio Slovenian 448 kbps 5.1 / 48 kHz / 448 kbpsDolby Digital Audio Turkish 448 kbps 5.1 / 48 kHz / 448 kbps
SUBTITLES:
Codec Language Bitrate Description----- -------- ------- -----------Presentation Graphics English 40,471 kbpsPresentation Graphics Spanish 29,738 kbpsPresentation Graphics French 0,041 kbpsPresentation Graphics Portuguese 27,003 kbpsPresentation Graphics Croatian 28,405 kbpsPresentation Graphics Czech 25,426 kbpsPresentation Graphics Slovak 28,870 kbpsPresentation Graphics Slovenian 28,403 kbpsPresentation Graphics Turkish 31,848 kbps
FILES:
Name Time In Length Size Total Bitrate---- ------- ------ ---- -------------00600.M2TS 0:00:00.000 1:32:54.110 27 421 507 584 39 35600601.M2TS 1:32:54.110 0:01:17.535 382 334 976 39 44900602.M2TS 1:34:11.645 0:08:17.497 2 403 545 088 38 650
CHAPTERS:
Number Time In Length Avg Video Rate Max 1-Sec Rate Max 1-Sec Time Max 5-Sec Rate Max 5-Sec Time Max 10Sec Rate Max 10Sec Time Avg Frame Size Max Frame Size Max Frame Time------ ------- ------ -------------- -------------- -------------- -------------- -------------- -------------- -------------- -------------- -------------- --------------1 0:00:00.000 0:04:48.204 28 858 kbps 34 696 kbps 00:03:18.364 31 017 kbps 00:03:34.339 30 594 kbps 00:03:29.375 150 432 bytes 616 242 bytes 00:00:57.8912 0:04:48.204 0:05:01.384 29 487 kbps 34 745 kbps 00:06:36.979 30 915 kbps 00:05:54.562 30 567 kbps 00:05:51.225 153 733 bytes 547 629 bytes 00:06:00.4853 0:09:49.589 0:03:15.945 29 351 kbps 32 582 kbps 00:10:39.764 30 690 kbps 00:10:56.113 30 455 kbps 00:12:38.424 153 023 bytes 512 240 bytes 00:12:55.3994 0:13:05.534 0:03:44.515 29 003 kbps 33 376 kbps 00:15:16.040 30 728 kbps 00:15:14.622 30 435 kbps 00:16:26.610 151 206 bytes 529 278 bytes 00:15:12.4945 0:16:50.050 0:03:46.142 27 848 kbps 38 509 kbps 00:17:01.395 31 656 kbps 00:16:57.349 31 060 kbps 00:16:52.386 145 186 bytes 553 662 bytes 00:16:54.3466 0:20:36.193 0:03:33.296 28 770 kbps 32 458 kbps 00:21:10.727 30 708 kbps 00:21:06.848 30 390 kbps 00:21:07.849 149 993 bytes 415 103 bytes 00:21:07.8917 0:24:09.489 0:04:07.747 28 346 kbps 35 112 kbps 00:24:25.255 30 958 kbps 00:24:38.894 30 544 kbps 00:24:33.930 147 785 bytes 480 279 bytes 00:24:32.4718 0:28:17.237 0:03:14.611 28 238 kbps 32 788 kbps 00:29:16.463 30 564 kbps 00:29:30.351 30 425 kbps 00:29:26.097 147 221 bytes 497 525 bytes 00:29:38.2349 0:31:31.848 0:02:34.737 27 997 kbps 32 699 kbps 00:32:33.660 30 621 kbps 00:33:38.933 30 274 kbps 00:33:35.096 145 962 bytes 638 960 bytes 00:32:29.40510 0:34:06.586 0:04:15.004 28 695 kbps 33 768 kbps 00:34:55.510 30 930 kbps 00:37:44.011 30 350 kbps 00:37:41.509 149 602 bytes 583 153 bytes 00:37:48.97511 0:38:21.590 0:04:55.837 28 465 kbps 33 484 kbps 00:38:46.866 30 888 kbps 00:39:12.058 30 525 kbps 00:39:07.053 148 404 bytes 494 199 bytes 00:39:16.93712 0:43:17.428 0:01:40.600 28 683 kbps 32 298 kbps 00:43:34.361 30 640 kbps 00:43:30.357 30 298 kbps 00:43:26.478 149 542 bytes 468 373 bytes 00:43:44.95513 0:44:58.028 0:02:06.709 29 183 kbps 32 658 kbps 00:46:25.657 30 664 kbps 00:45:08.205 30 468 kbps 00:46:08.557 152 146 bytes 474 091 bytes 00:46:33.24814 0:47:04.738 0:02:03.206 28 212 kbps 32 434 kbps 00:48:48.508 30 622 kbps 00:48:42.002 30 347 kbps 00:48:37.164 147 087 bytes 367 288 bytes 00:48:08.13515 0:49:07.944 0:03:32.754 27 607 kbps 32 397 kbps 00:51:35.550 30 625 kbps 00:49:31.134 30 384 kbps 00:51:18.366 143 930 bytes 341 147 bytes 00:51:36.46816 0:52:40.699 0:03:48.186 27 208 kbps 33 074 kbps 00:55:39.085 30 565 kbps 00:55:32.704 30 371 kbps 00:55:30.076 141 848 bytes 554 298 bytes 00:55:41.00417 0:56:28.885 0:03:23.328 27 987 kbps 32 245 kbps 00:56:40.480 30 568 kbps 00:56:36.726 30 387 kbps 00:56:31.471 145 912 bytes 363 621 bytes 00:58:45.31318 0:59:52.213 0:03:35.173 26 710 kbps 32 628 kbps 01:01:06.621 30 731 kbps 01:01:02.617 30 531 kbps 01:01:02.408 139 252 bytes 409 115 bytes 01:03:27.38619 1:03:27.386 0:04:21.552 27 257 kbps 34 349 kbps 01:06:22.311 30 621 kbps 01:06:40.371 30 032 kbps 01:05:39.810 142 104 bytes 505 938 bytes 01:06:23.27020 1:07:48.939 0:06:47.532 27 611 kbps 33 347 kbps 01:08:38.989 30 663 kbps 01:08:28.938 30 402 kbps 01:08:24.141 143 953 bytes 407 100 bytes 01:10:58.87921 1:14:36.472 0:03:48.478 26 370 kbps 32 672 kbps 01:17:59.758 30 737 kbps 01:15:58.428 30 315 kbps 01:15:56.468 137 480 bytes 443 960 bytes 01:16:03.39222 1:18:24.950 0:01:48.149 26 314 kbps 33 516 kbps 01:20:05.926 30 288 kbps 01:19:48.450 29 708 kbps 01:19:47.324 137 190 bytes 331 401 bytes 01:19:49.11723 1:20:13.099 0:03:49.938 26 727 kbps 32 507 kbps 01:21:54.576 30 577 kbps 01:23:17.283 30 235 kbps 01:23:16.908 139 340 bytes 405 721 bytes 01:21:36.76624 1:24:03.038 0:01:16.242 26 593 kbps 31 419 kbps 01:24:24.768 29 711 kbps 01:24:39.783 29 059 kbps 01:24:35.612 138 643 bytes 303 424 bytes 01:24:25.22625 1:25:19.280 0:02:14.759 26 753 kbps 32 108 kbps 01:27:23.571 30 154 kbps 01:27:07.639 29 728 kbps 01:26:36.482 139 477 bytes 353 121 bytes 01:25:22.74226 1:27:34.040 0:04:31.479 27 843 kbps 32 877 kbps 01:31:30.860 30 618 kbps 01:30:27.422 30 179 kbps 01:30:51.362 145 163 bytes 550 076 bytes 01:31:25.52127 1:32:05.520 0:02:06.960 28 189 kbps 33 122 kbps 01:33:28.853 30 703 kbps 01:33:24.807 30 395 kbps 01:33:52.209 146 962 bytes 552 177 bytes 01:33:29.81228 1:34:12.480 0:08:16.662 28 010 kbps 36 280 kbps 01:34:14.148 31 360 kbps 01:35:26.387 30 713 kbps 01:35:47.741 146 045 bytes 618 862 bytes 01:36:13.100
STREAM DIAGNOSTICS:
File PID Type Codec Language Seconds Bitrate Bytes Packets---- --- ---- ----- -------- -------------- -------------- ------------- -----00600.M2TS 4113 (0x1011) 0x1B AVC 5573,985 27 997 19 506 620 536 106 092 44100600.M2TS 4352 (0x1100) 0x86 DTS-HD MA eng (English) 5573,985 4 946 3 446 349 204 19 597 12600600.M2TS 4353 (0x1101) 0x81 AC3 eng (English) 5573,985 448 312 150 272 1 741 91000600.M2TS 4354 (0x1102) 0x81 AC3 spa (Spanish) 5573,985 448 312 150 272 1 741 91000600.M2TS 4355 (0x1103) 0x81 AC3 fra (French) 5573,985 448 312 150 272 1 741 91000600.M2TS 4356 (0x1104) 0x81 AC3 por (Portuguese) 5573,985 448 312 150 272 1 741 91000600.M2TS 4357 (0x1105) 0x81 AC3 hrv (Croatian) 5573,985 448 312 150 272 1 741 91000600.M2TS 4358 (0x1106) 0x81 AC3 ces (Czech) 5573,985 448 312 150 272 1 741 91000600.M2TS 4359 (0x1107) 0x81 AC3 slk (Slovak) 5573,985 448 312 150 272 1 741 91000600.M2TS 4360 (0x1108) 0x81 AC3 slv (Slovenian) 5573,985 448 312 150 272 1 741 91000600.M2TS 4361 (0x1109) 0x81 AC3 tur (Turkish) 5573,985 448 312 150 272 1 741 91000600.M2TS 4608 (0x1200) 0x90 PGS eng (English) 5573,985 42 29 421 366 170 51800600.M2TS 4609 (0x1201) 0x90 PGS spa (Spanish) 5573,985 32 22 401 811 129 21000600.M2TS 4610 (0x1202) 0x90 PGS fra (French) 5573,985 0 70 700600.M2TS 4611 (0x1203) 0x90 PGS por (Portuguese) 5573,985 29 20 379 887 119 34400600.M2TS 4612 (0x1204) 0x90 PGS hrv (Croatian) 5573,985 31 21 413 233 125 00900600.M2TS 4613 (0x1205) 0x90 PGS ces (Czech) 5573,985 28 19 185 052 112 88300600.M2TS 4614 (0x1206) 0x90 PGS slk (Slovak) 5573,985 31 21 758 042 126 86900600.M2TS 4615 (0x1207) 0x90 PGS slv (Slovenian) 5573,985 31 21 405 894 124 98400600.M2TS 4616 (0x1208) 0x90 PGS tur (Turkish) 5573,985 34 23 985 113 138 95000601.M2TS 4113 (0x1011) 0x1B AVC 77,369 28 004 270 829 387 1 472 97300601.M2TS 4352 (0x1100) 0x86 DTS-HD MA eng (English) 77,369 4 998 48 337 240 275 37700601.M2TS 4353 (0x1101) 0x81 AC3 eng (English) 77,369 449 4 342 016 24 23000601.M2TS 4354 (0x1102) 0x81 AC3 spa (Spanish) 77,369 449 4 342 016 24 23000601.M2TS 4355 (0x1103) 0x81 AC3 fra (French) 77,369 449 4 342 016 24 23000601.M2TS 4356 (0x1104) 0x81 AC3 por (Portuguese) 77,369 449 4 342 016 24 23000601.M2TS 4357 (0x1105) 0x81 AC3 hrv (Croatian) 77,369 449 4 342 016 24 23000601.M2TS 4358 (0x1106) 0x81 AC3 ces (Czech) 77,369 449 4 342 016 24 23000601.M2TS 4359 (0x1107) 0x81 AC3 slk (Slovak) 77,369 449 4 342 016 24 23000601.M2TS 4360 (0x1108) 0x81 AC3 slv (Slovenian) 77,369 449 4 342 016 24 23000601.M2TS 4361 (0x1109) 0x81 AC3 tur (Turkish) 77,369 449 4 342 016 24 23000601.M2TS 4608 (0x1200) 0x90 PGS eng (English) 77,369 53 511 288 2 95900601.M2TS 4609 (0x1201) 0x90 PGS spa (Spanish) 77,369 42 409 436 2 35800601.M2TS 4610 (0x1202) 0x90 PGS fra (French) 77,369 1 5 411 3600601.M2TS 4611 (0x1203) 0x90 PGS por (Portuguese) 77,369 37 358 213 2 10300601.M2TS 4612 (0x1204) 0x90 PGS hrv (Croatian) 77,369 42 402 521 2 34000601.M2TS 4613 (0x1205) 0x90 PGS ces (Czech) 77,369 35 338 553 1 98600601.M2TS 4614 (0x1206) 0x90 PGS slk (Slovak) 77,369 43 412 780 2 38800601.M2TS 4615 (0x1207) 0x90 PGS slv (Slovenian) 77,369 42 407 502 2 36300601.M2TS 4616 (0x1208) 0x90 PGS tur (Turkish) 77,369 49 473 908 2 73300602.M2TS 4113 (0x1011) 0x1B AVC 497,330 28 007 1 741 117 823 9 469 52600602.M2TS 4352 (0x1100) 0x86 DTS-HD MA eng (English) 497,330 4 523 281 170 864 1 605 62400602.M2TS 4353 (0x1101) 0x81 AC3 eng (English) 497,330 448 27 860 224 155 47000602.M2TS 4354 (0x1102) 0x81 AC3 spa (Spanish) 497,330 448 27 860 224 155 47000602.M2TS 4355 (0x1103) 0x81 AC3 fra (French) 497,330 448 27 860 224 155 47000602.M2TS 4356 (0x1104) 0x81 AC3 por (Portuguese) 497,330 448 27 860 224 155 47000602.M2TS 4357 (0x1105) 0x81 AC3 hrv (Croatian) 497,330 448 27 860 224 155 47000602.M2TS 4358 (0x1106) 0x81 AC3 ces (Czech) 497,330 448 27 860 224 155 47000602.M2TS 4359 (0x1107) 0x81 AC3 slk (Slovak) 497,330 448 27 860 224 155 47000602.M2TS 4360 (0x1108) 0x81 AC3 slv (Slovenian) 497,330 448 27 860 224 155 47000602.M2TS 4361 (0x1109) 0x81 AC3 tur (Turkish) 497,330 448 27 860 224 155 47000602.M2TS 4608 (0x1200) 0x90 PGS eng (English) 497,330 19 1 174 946 6 77500602.M2TS 4609 (0x1201) 0x90 PGS spa (Spanish) 497,330 1 46 605 26700602.M2TS 4610 (0x1202) 0x90 PGS fra (French) 497,330 0 26 402 15000602.M2TS 4611 (0x1203) 0x90 PGS por (Portuguese) 497,330 0 17 773 10400602.M2TS 4612 (0x1204) 0x90 PGS hrv (Croatian) 497,330 0 17 636 10300602.M2TS 4613 (0x1205) 0x90 PGS ces (Czech) 497,330 0 19 554 11300602.M2TS 4614 (0x1206) 0x90 PGS slk (Slovak) 497,330 0 19 833 11500602.M2TS 4615 (0x1207) 0x90 PGS slv (Slovenian) 497,330 0 18 695 10900602.M2TS 4616 (0x1208) 0x90 PGS tur (Turkish) 497,330 0 20 386 118
[/code]<---- END FORUMS PASTE ---->
QUICK SUMMARY:
Disc Title: Epic 2012 1080p Blu-ray AVC DTS-HD MA 5.1-HDWinGDisc Size: 43 012 936 229 bytesProtection: AACSBD-Java: YesPlaylist: 00800.MPLSSize: 30 207 387 648 bytesLength: 1:42:29.142Total Bitrate: 39,30 MbpsVideo: MPEG-4 AVC Video / 27996 kbps / 1080p / 23,976 fps / 16:9 / High Profile 4.1Audio: English / DTS-HD Master Audio / 7.1 / 48 kHz / 4912 kbps / 24-bit (DTS Core: 5.1-ES / 48 kHz / 1509 kbps / 24-bit)Audio: English / Dolby Digital Audio / 5.1 / 48 kHz / 448 kbpsAudio: Spanish / Dolby Digital Audio / 5.1 / 48 kHz / 448 kbpsAudio: French / Dolby Digital Audio / 5.1 / 48 kHz / 448 kbpsAudio: Portuguese / Dolby Digital Audio / 5.1 / 48 kHz / 448 kbpsAudio: Croatian / Dolby Digital Audio / 5.1 / 48 kHz / 448 kbpsAudio: Czech / Dolby Digital Audio / 5.1 / 48 kHz / 448 kbpsAudio: Slovak / Dolby Digital Audio / 5.1 / 48 kHz / 448 kbpsAudio: Slovenian / Dolby Digital Audio / 5.1 / 48 kHz / 448 kbpsAudio: Turkish / Dolby Digital Audio / 5.1 / 48 kHz / 448 kbpsSubtitle: English / 40,471 kbpsSubtitle: Spanish / 29,738 kbpsSubtitle: French / 0,041 kbpsSubtitle: Portuguese / 27,003 kbpsSubtitle: Croatian / 28,405 kbpsSubtitle: Czech / 25,426 kbpsSubtitle: Slovak / 28,870 kbpsSubtitle: Slovenian / 28,403 kbpsSubtitle: Turkish / 31,848 kbps

MediaInfo

GeneralUnique ID : 199944071668466353768746288070139348793 (0x966BD3D5EB5C76F4AD4E0F9E11648739)Complete name : Epic.2013.BDRemux.1080p.dfcbit.mkvFormat : MatroskaFormat version : Version 2File size : 27.9 GiBDuration : 1h 42mnOverall bit rate mode : VariableOverall bit rate : 39.0 MbpsEncoded date : UTC 2013-11-06 17:59:39Writing application : mkvmerge v4.0.0 ('The Stars were mine') built on Jun 6 2010 16:18:42Writing library : libebml v1.0.0 + libmatroska v1.0.0
VideoID : 1Format : AVCFormat/Info : Advanced Video CodecFormat profile : High@L4.1Format settings, CABAC : YesFormat settings, ReFrames : 4 framesCodec ID : V_MPEG4/ISO/AVCDuration : 1h 42mnBit rate mode : VariableBit rate : 27.3 MbpsMaximum bit rate : 30.5 MbpsWidth : 1 920 pixelsHeight : 1 080 pixelsDisplay aspect ratio : 16:9Frame rate mode : ConstantFrame rate : 23.976 fpsColor space : YUVChroma subsampling : 4:2:0Bit depth : 8 bitsScan type : ProgressiveTitle : NTSC, 1920x1080, Untached ~27996 kbps avg, BDRemux 1080p - tRuAVC & Multfilmy [DFCbit]Language : EnglishDefault : YesForced : No
Audio #1ID : 2Format : DTSFormat/Info : Digital Theater SystemsMode : 16Format settings, Endianness : BigCodec ID : A_DTSDuration : 1h 42mnBit rate mode : ConstantBit rate : 768 KbpsChannel(s) : 6 channelsChannel positions : Front: L C R, Side: L R, LFESampling rate : 48.0 KHzBit depth : 24 bitsCompression mode : LossyStream size : 563 MiB (2%)Title : DTS / 5.1 / 48 kHz / 768 kbps / 24-bit - Дубляж | BD EURLanguage : RussianDefault : YesForced : No
Audio #2ID : 3Format : DTSFormat/Info : Digital Theater SystemsFormat profile : MA / CoreMode : 16Format settings, Endianness : BigCodec ID : A_DTSDuration : 1h 42mnBit rate mode : VariableBit rate : 4 979 Kbps / 1 509 KbpsChannel(s) : 8 channels / 6 channelsChannel positions : Front: L C R, Side: L R, Back: L R, LFE / Front: L C R, Side: L R, LFESampling rate : 48.0 KHzBit depth : 24 bitsCompression mode : Lossless / LossyTitle : DTS-HD MA / 7.1 / 48 kHz / 4979 kbps / 24-bit (DTS Core: 5.1-ES / 48 kHz / 1509 kbps / 24-bit) - AVO | Андрей ГавриловLanguage : RussianDefault : NoForced : No
Audio #3ID : 4Format : AC-3Format/Info : Audio Coding 3Mode extension : CM (complete main)Format settings, Endianness : BigCodec ID : A_AC3Duration : 1h 42mnBit rate mode : ConstantBit rate : 448 KbpsChannel(s) : 6 channelsChannel positions : Front: L C R, Side: L R, LFESampling rate : 48.0 KHzBit depth : 16 bitsCompression mode : LossyStream size : 328 MiB (1%)Title : AC3, 6 ch, 48 kHz, 448 kbps - Дубляж | BD EURLanguage : UkrainianDefault : NoForced : No
Audio #4ID : 5Format : DTSFormat/Info : Digital Theater SystemsFormat profile : MA / CoreMode : 16Format settings, Endianness : BigCodec ID : A_DTSDuration : 1h 42mnBit rate mode : VariableBit rate : 4 912 Kbps / 1 509 KbpsChannel(s) : 8 channels / 6 channelsChannel positions : Front: L C R, Side: L R, Back: L R, LFE / Front: L C R, Side: L R, LFESampling rate : 48.0 KHzBit depth : 24 bitsCompression mode : Lossless / LossyTitle : DTS-HD MA / 7.1 / 48 kHz / 4912 kbps / 24-bit (DTS Core: 5.1-ES / 48 kHz / 1509 kbps / 24-bit) - OriginalLanguage : EnglishDefault : NoForced : No
Text #1ID : 6Format : UTF-8Codec ID : S_TEXT/UTF8Codec ID/Info : UTF-8 Plain TextTitle : SRT, FullLanguage : RussianDefault : NoForced : No
Text #2ID : 7Format : UTF-8Codec ID : S_TEXT/UTF8Codec ID/Info : UTF-8 Plain TextTitle : SRT, FullLanguage : UkrainianDefault : NoForced : No
Text #3ID : 8Format : UTF-8Codec ID : S_TEXT/UTF8Codec ID/Info : UTF-8 Plain TextTitle : SRT, FullLanguage : EnglishDefault : NoForced : No
Text #4ID : 9Format : UTF-8Codec ID : S_TEXT/UTF8Codec ID/Info : UTF-8 Plain TextTitle : SRT, (SDH)Language : EnglishDefault : NoForced : No
Menu00:00:00.000 : en:Chapter 100:04:48.205 : en:Chapter 200:09:49.589 : en:Chapter 300:13:05.535 : en:Chapter 400:16:50.051 : en:Chapter 500:20:36.193 : en:Chapter 600:24:09.490 : en:Chapter 700:28:17.237 : en:Chapter 800:31:31.848 : en:Chapter 900:34:06.586 : en:Chapter 1000:38:21.591 : en:Chapter 1100:43:17.428 : en:Chapter 1200:44:58.029 : en:Chapter 1300:47:04.739 : en:Chapter 1400:49:07.945 : en:Chapter 1500:52:40.699 : en:Chapter 1600:56:28.885 : en:Chapter 1700:59:52.214 : en:Chapter 1801:03:27.387 : en:Chapter 1901:07:48.940 : en:Chapter 2001:14:36.472 : en:Chapter 2101:18:24.950 : en:Chapter 2201:20:13.100 : en:Chapter 2301:24:03.038 : en:Chapter 2401:25:19.281 : en:Chapter 2501:27:34.040 : en:Chapter 2601:32:05.520 : en:Chapter 2701:34:12.480 : en:Chapter 28

Скриншоты

Скриншот с названием мультфильма
--BDRemux 1080p

Релиз от групп | and | -Данный релиз не будет воспроизводиться на бытовых плеерах не поддерживающих MKV и H.264Обсуждение релизов в AVC формате || Свежие AVC рипы


Показать сообщения:    

Текущее время: 13-Дек 15:16

Часовой пояс: UTC ± 0


Вы не можете начинать темы
Вы не можете отвечать на сообщения
Вы не можете редактировать свои сообщения
Вы не можете удалять свои сообщения
Вы не можете голосовать в опросах
Вы не можете прикреплять файлы к сообщениям
Вы не можете скачивать файлы

!ВНИМАНИЕ!
Сайт не предоставляет электронные версии произведений, а занимается лишь коллекционированием и каталогизацией ссылок, присылаемых и публикуемых на форуме нашими читателями. Если вы являетесь правообладателем какого-либо представленного материала и не желаете, чтобы ссылка на него находилась в нашем каталоге, свяжитесь с нами, и мы незамедлительно удалим ее. Файлы для обмена на трекере предоставлены пользователями сайта, и администрация не несет ответственности за их содержание. Просьба не заливать файлы, защищенные авторскими правами, а также файлы нелегального содержания!