Важное объявление!
У Нас Все раздачи мультитрекерные, при нуле пиров в релизах, можете смело вставать на закачку!
 
Автор Сообщение

димитри37

Стаж:
3 года 10 месяцев
Сообщений:
1237

Репутация: 127

[+] [-]
Вне форума [Профиль] [ЛС]

Энигма / Код "Энигма" / Enigma
«10,000,000,000,000,000+ combinations - 24 hours to get it right»
-
Страна: Великобритания, США, Германия, Нидерланды
Жанр: Драма, военный, триллер
Год выпуска: 2001
Продолжительность: 01:58:48-Перевод 1: Профессиональный (полное дублирование)
Перевод 2: Профессиональный (многоголосый закадровый) [отдельно]
Cубтитры: нет-Режиссер: Майкл Эптид / Michael Apted-В ролях: Дюгрей Скотт, Кейт Уинслет, Саффрон Берроуз, Джереми Нортэм, Николай Костер-Вальдау, Том Холландер, Дональд Самптер, Мэттью Макфейден, Ричард Лиф, Йен Фелс-Описание: В марте 1943 года, лучшие умы Англии были собраны в Парке Блетчли, где их известили о самой ужасной новости — нацисты изменили ключ кода для машины «Энигма»! Так как они не способны контролировать связь нацистских подлодок «U» то в считанные часы союзнический корабль, пересекающий Атлантику с 10 тысячами пассажирами и продовольственными запасами может быть потоплен. Команда принимает решение искать помощи у Тома Джерико, блестящего молодого математика, специалиста по кодам. Джерико пытается разгадать еще и другую загадку, но она уже личного характера; женщина, в которую он влюблен, исчезла после того, как власти начали искать шпиона в Парке. Чтобы добраться до сути обеих тайн, Джерико обращается к Хестер, лучшей подруге Клэр, которая работает в Блетчли. Вместе они пытаются опережать расследование, которое проводит агент секретной службы Уиграм. Правда оказывается иногда очень горькой…- -Тип релиза: WEB-DLRip [исх. WEB-DL 720p]
Формат видео: AVI-Видео: 720x304 (2.37:1), 23.976 fps, XviD build 50, 1309 kbps avg, 0.25 bit/pixel
Аудио 1: 48 kHz, AC3 Dolby Digital, 3/2 (L,C,R,l,r) + LFE ch, 448.00 kbps avg [Russian_Dub]
Аудио 2: 48 kHz, AC3 Dolby Digital, 3/2 (L,C,R,l,r) + LFE ch, 384.00 kbps avg [Russian_MVO] [отдельно]-

MediaInfo

General
Complete name : E:\Мои раздачи\Enigma_WEBDLRip_RG_All_Films\Enigma_WEBDLRip_RG_All_Films.avi
Format : AVI
Format/Info : Audio Video Interleave
File size : 1.47 GiB
Duration : 1h 58mn
Overall bit rate : 1 767 Kbps
Writing application : VirtualDubMod 1.5.10.3
Writing library : VirtualDubMod build 2550/release
Video
ID : 0
Format : MPEG-4 Visual
Format profile : Advanced Simple@L5
Format settings, BVOP : Yes
Format settings, QPel : No
Format settings, GMC : No warppoints
Format settings, Matrix : Custom
Codec ID : XVID
Codec ID/Hint : XviD
Duration : 1h 58mn
Bit rate : 1 310 Kbps
Width : 720 pixels
Height : 304 pixels
Display aspect ratio : 2.35:1
Frame rate : 23.976 fps
Color space : YUV
Chroma subsampling : 4:2:0
Bit depth : 8 bits
Scan type : Progressive
Compression mode : Lossy
Bits/(Pixel*Frame) : 0.250
Stream size : 1.09 GiB (74%)
Writing library : XviD 1.2.1 (UTC 2008-12-04)
Audio 1
ID : 1
Format : AC-3
Format/Info : Audio Coding 3
Mode extension : CM (complete main)
Codec ID : 2000
Duration : 1h 58mn
Bit rate mode : Constant
Bit rate : 448 Kbps
Channel(s) : 6 channels
Channel positions : Front: L C R, Side: L R, LFE
Sampling rate : 48.0 KHz
Bit depth : 16 bits
Compression mode : Lossy
Stream size : 381 MiB (25%)
Alignment : Split accross interleaves
Interleave, duration : 42 ms (1.00 video frame)
Interleave, preload duration : 500 ms
Audio 2 (отдельно)
Format : AC-3
Format/Info : Audio Coding 3
Mode extension : CM (complete main)
Duration : 1h 58mn
Bit rate mode : Constant
Bit rate : 384 Kbps
Channel(s) : 6 channels
Channel positions : Front: L C R, Side: L R, LFE
Sampling rate : 48.0 KHz
Bit depth : 16 bits
Compression mode : Lossy
Stream size : 326 MiB (100%)

Скриншоты

-
Показать сообщения:    

Текущее время: Сегодня 17:54

Часовой пояс: GMT



Вы не можете начинать темы
Вы не можете отвечать на сообщения
Вы не можете редактировать свои сообщения
Вы не можете удалять свои сообщения
Вы не можете голосовать в опросах
Вы не можете прикреплять файлы к сообщениям
Вы не можете скачивать файлы
Наши партнеры: интернет магазин Ивановского трикотажа textilla.ru