Важное объявление!
У Нас Все раздачи мультитрекерные, при нуле пиров в релизах, можете смело вставать на закачку!
 
Автор Сообщение

HUNTER

Стаж:
4 года 10 месяцев
Сообщений:
65531

Репутация: 101

[+] [-]
Вне форума [Профиль] [ЛС]

Энеида / Енеїда-
Год выпуска: 1991
Страна: СССР / Украина
Жанр: анимация, сатира, экранизация
Продолжительность: 01:08:35
Перевод: Субтитры
Русские субтитры: есть-
Режиссер: Владимир Дахно
Текст читает: А. Подубинський-Описание: По мотивам одноименной поэмы И. П. Котляревского «Энеида».
Эней за время своего путешествия успел побывать и в раю и в аду. Но везде он оставался настоящим казаком, способным с честью выйти из любой ситуации.-Ссылка по теме: http://ru.wikipedia.org/wiki/Котляревский,_Иван_Петрович-Доп. информация: сделано из DVD5. За рип спасибо Nyc-2008. Видео подверглось небольшой чистке от царапин.-Релиз группы: -Качество: DVDRip
Формат: AVI
Видео: 704x544 (1.29:1), 25 fps, XviD MPEG-4 ~2393 kbps avg, 0.25 bit/pixel
Аудио: Украинский (48 kHz, AC3 Dolby Digital, 2/0 (L,R) ch, ~192 kbps)
Субтитры:
1. русские [в переводе Бражнина Ильи Яковлевича, 1953 г.]
2. русские [в переводе Веры Аркадьевны Потаповой, 1961 г.]
вложены в раздачу отдельными *.srt файлами (SubRip format)

MediaInfo

GeneralComplete name : E:\VIDEO_Mult\Eneyida\Eneyida.1991.aviFormat : AVIFormat/Info : Audio Video InterleaveFile size : 1.24 GiBDuration : 1h 8mnOverall bit rate : 2 595 KbpsWriting application : VirtualDubMod 1.5.10.2 (build 2542/release)Comment : Nyc-2008 / RG Multfilmy / rutracker.org
VideoID : 0Format : MPEG-4 VisualFormat profile : Advanced Simple@L5Format settings, BVOP : 2Format settings, QPel : NoFormat settings, GMC : No warppointsFormat settings, Matrix : CustomMuxing mode : Packed bitstreamCodec ID : XVIDCodec ID/Hint : XviDDuration : 1h 8mnBit rate : 2 394 KbpsWidth : 704 pixelsHeight : 544 pixelsDisplay aspect ratio : 1.294Frame rate : 25.000 fpsColor space : YUVChroma subsampling : 4:2:0Bit depth : 8 bitsScan type : ProgressiveCompression mode : LossyBits/(Pixel*Frame) : 0.250Stream size : 1.15 GiB (92%)Writing library : XviD 1.2.1 (UTC 2008-12-04)
AudioID : 1Format : AC-3Format/Info : Audio Coding 3Mode extension : CM (complete main)Codec ID : 2000Duration : 1h 8mnBit rate mode : ConstantBit rate : 192 KbpsChannel(s) : 2 channelsChannel positions : Front: L RSampling rate : 48.0 KHzBit depth : 16 bitsCompression mode : LossyStream size : 94.2 MiB (7%)Alignment : Split accross interleavesInterleave, duration : 40 ms (1.00 video frame)Interleave, preload duration : 500 ms

_________________
Показать сообщения:    

Текущее время: Сегодня 09:47

Часовой пояс: GMT



Вы не можете начинать темы
Вы не можете отвечать на сообщения
Вы не можете редактировать свои сообщения
Вы не можете удалять свои сообщения
Вы не можете голосовать в опросах
Вы не можете прикреплять файлы к сообщениям
Вы не можете скачивать файлы