Эльдорадо / El Dorado (Ховард Хоукс / Howard Hawks) [1966, США, вестерн, BDRip 1080p] MVO (SomeWax) + Sub Rus + Sub Eng + Sub Eng (SDH) + Original Eng :: Ивановский Торрент трекер
Важное объявление!
У Нас Все раздачи мультитрекерные, при нуле пиров в релизах, можете смело вставать на закачку!
Статистика раздачи
Размер:     |    Зарегистрирован:     |    Скачан:     |   
Нет
 
     
 
 
Автор Сообщение

HUNTER

Стаж:
4 года 11 месяцев
Сообщений:
66090

Репутация: 101

[+] [-]
Вне форума [Профиль] [ЛС]

Эльдорадо / El Dorado
Страна: США
Жанр: вестерн
Год выпуска: 1966
Продолжительность: 02:06:32
Перевод: Профессиональный (многоголосый закадровый) SomeWax
Cубтитры: русские, английские, английские для слабослышащих (SDH)
Оригинальная аудиодорожка: английский
Режиссер: Ховард Хоукс / Howard Hawks
В ролях: Джон Уэйн, Роберт Митчум, Джеймс Каан, Шарлин Холт, Пол Фикс, Артур Ханникат, Мишель Кэри, Р.Г. Армстронг, Эдвард Эснер, Кристофер Джордж
Описание: Влиятельный землевладелец городка Эльдорадо Барт Джейсон нанимает известного стрелка Коула Торнтона для решения земельного вопроса с семьей МакДоналдов. Шерифом Эльдорадо оказался старый друг Коула Джей Пи Хара.
Отказавшись от предложения Джейсона, Торнтон встает на сторону шерифа и принимает решение защитить МакДоналдов. В свою очередь Барт набирает банду головорезов, чтобы силой завладеть землей.
Кинопоиск|Imdb|Сэмпл
Тип релиза: BDRip 1080p
Контейнер: MKV
Видео: MPEG4 Video (H264) 1920x1080 23.976fps 14.5 Mbps
Аудио: Русский AC-3 2 ch 48.0 KHz 192 Kbps
Аудио 2: Английский AC-3 2 ch 48.0 KHz 224 Kbps
Формат субтитров: softsub (SRT)
Звук взят отсюда El Dorado Thx kingsize87

MediaInfo

General
Unique ID : 229139553770652737752530699019000650264 (0xAC62AC3CF387F4328F1EAD7DEA8E9A18)
Complete name : D:\El.Dorado.1966.BDRip.1080p.x264.mkv
Format : Matroska
Format version : Version 4 / Version 2
File size : 13.2 GiB
Duration : 2h 6mn
Overall bit rate : 14.9 Mbps
Encoded date : UTC 2014-10-04 07:51:29
Writing application : mkvmerge v6.9.1 ('Blue Panther') 64bit built on Apr 18 2014 18:23:38
Writing library : libebml v1.3.0 + libmatroska v1.4.1
DURATION : 02:06:31.648000000
NUMBER_OF_FRAMES : 237239
NUMBER_OF_BYTES : 212566144
_STATISTICS_WRITING_APP : mkvmerge v7.0.0 ('Where We Going') 64bit built on Jun 9 2014 15:16:27
_STATISTICS_WRITING_DATE_UTC : 2014-07-17 05:55:45
_STATISTICS_TAGS : BPS DURATION NUMBER_OF_FRAMES NUMBER_OF_BYTES
Video
ID : 1
Format : AVC
Format/Info : Advanced Video Codec
Format profile : High@L4.1
Format settings, CABAC : Yes
Format settings, ReFrames : 4 frames
Codec ID : V_MPEG4/ISO/AVC
Bit rate : 14.5 Mbps
Width : 1 920 pixels
Height : 1 080 pixels
Display aspect ratio : 16:9
Frame rate mode : Variable
Original frame rate : 23.976 fps
Color space : YUV
Chroma subsampling : 4:2:0
Bit depth : 8 bits
Scan type : Progressive
Bits/(Pixel*Frame) : 0.292
Title : MPEG-4AVC@High Profile L4.1, 24/1.001 fps @ 14500 kbps
Writing library : x264 core 142 r2431 ac76440
Encoding settings : cabac=1 / ref=4 / deblock=1:-3:-3 / analyse=0x3:0x133 / me=umh / subme=11 / psy=1 / psy_rd=1.00:0.00 / mixed_ref=1 / me_range=32 / chroma_me=1 / trellis=2 / 8x8dct=1 / cqm=0 / deadzone=21,11 / fast_pskip=0 / chroma_qp_offset=-2 / threads=24 / lookahead_threads=2 / sliced_threads=0 / nr=0 / decimate=0 / interlaced=0 / bluray_compat=0 / constrained_intra=0 / bframes=6 / b_pyramid=2 / b_adapt=2 / b_bias=0 / direct=3 / weightb=1 / open_gop=0 / weightp=2 / keyint=240 / keyint_min=23 / scenecut=40 / intra_refresh=0 / rc_lookahead=60 / rc=2pass / mbtree=1 / bitrate=14500 / ratetol=1.0 / qcomp=0.60 / qpmin=0 / qpmax=69 / qpstep=4 / cplxblur=20.0 / qblur=0.5 / vbv_maxrate=45000 / vbv_bufsize=45000 / nal_hrd=none / filler=0 / ip_ratio=1.40 / aq=1:0.60
Language : English
Default : Yes
Forced : No
DURATION : 02:06:31.584000000
NUMBER_OF_FRAMES : 182016
NUMBER_OF_BYTES : 13760142113
_STATISTICS_WRITING_APP : mkvmerge v7.0.0 ('Where We Going') 64bit built on Jun 9 2014 15:16:27
_STATISTICS_WRITING_DATE_UTC : 2014-07-17 05:55:45
_STATISTICS_TAGS : BPS DURATION NUMBER_OF_FRAMES NUMBER_OF_BYTES
Audio #1
ID : 2
Format : AC-3
Format/Info : Audio Coding 3
Mode extension : CM (complete main)
Format settings, Endianness : Big
Codec ID : A_AC3
Duration : 2h 6mn
Bit rate mode : Constant
Bit rate : 192 Kbps
Channel count : 2 channels
Channel positions : Front: L R
Sampling rate : 48.0 KHz
Bit depth : 16 bits
Compression mode : Lossy
Stream size : 174 MiB (1%)
Title : MVO "SomeWax"
Language : Russian
Default : Yes
Forced : No
Audio #2
ID : 3
Format : AC-3
Format/Info : Audio Coding 3
Mode extension : CM (complete main)
Format settings, Endianness : Big
Codec ID : A_AC3
Duration : 2h 6mn
Bit rate mode : Constant
Bit rate : 224 Kbps
Channel count : 2 channels
Channel positions : Front: L R
Sampling rate : 48.0 KHz
Bit depth : 16 bits
Compression mode : Lossy
Stream size : 203 MiB (2%)
Title : English Dolby Digital Audio 2.0 @ 224 kbps
Language : English
Default : No
Forced : No
Text #1
ID : 4
Format : UTF-8
Codec ID : S_TEXT/UTF8
Codec ID/Info : UTF-8 Plain Text
Language : Russian
Default : No
Forced : No
Text #2
ID : 5
Format : UTF-8
Codec ID : S_TEXT/UTF8
Codec ID/Info : UTF-8 Plain Text
Title : SDH
Language : English
Default : No
Forced : No
Text #3
ID : 6
Format : UTF-8
Codec ID : S_TEXT/UTF8
Codec ID/Info : UTF-8 Plain Text
Language : English
Default : No
Forced : No
Menu
00:00:00.000 : en:00:00:00.000
00:13:20.466 : en:00:13:20.466
00:25:56.013 : en:00:25:56.013
00:39:14.936 : en:00:39:14.936
00:47:33.100 : en:00:47:33.100
00:58:55.157 : en:00:58:55.157
01:07:17.533 : en:01:07:17.533
01:17:44.952 : en:01:17:44.952
01:25:50.312 : en:01:25:50.312
01:31:06.002 : en:01:31:06.002
01:42:17.298 : en:01:42:17.298
01:49:38.781 : en:01:49:38.781
02:01:40.752 : en:02:01:40.752
02:06:05.308 : en:02:06:05.308

Скриншоты


_________________
Показать сообщения:    

Текущее время: Сегодня 03:59

Часовой пояс: GMT



Вы не можете начинать темы
Вы не можете отвечать на сообщения
Вы не можете редактировать свои сообщения
Вы не можете удалять свои сообщения
Вы не можете голосовать в опросах
Вы не можете прикреплять файлы к сообщениям
Вы не можете скачивать файлы