Элизабеттаун / Elizabethtown (Кэмерон Кроу / Cameron Crowe) [2005, Драма, мелодрама, комедия, WEB-DLRip] Dub :: Ивановский Торрент трекер
Важное объявление!
У Нас Все раздачи мультитрекерные, при нуле пиров в релизах, можете смело вставать на закачку!
Статистика раздачи
Размер:     |    Зарегистрирован:     |    Скачан:     |   
Нет
 
     
 
 
Автор Сообщение

димитри37

Стаж:
4 года 3 месяца
Сообщений:
1236

Репутация: 127

[+] [-]
Вне форума [Профиль] [ЛС]

Элизабеттаун / Elizabethtown
«Желания сбываются, когда уже не ждешь»
Год выпуска: 2005
Выпущено: США / Paramount Pictures
Жанр: драма, мелодрама, комедия
Продолжительность: 02:03:53
Перевод: Профессиональный (полное дублирование)
Cубтитры: нет
Режиссер: Кэмерон Кроу / Cameron Crowe
В ролях: Орландо Блум (Drew Baylor), Кирстен Данст (Claire Colburn), Сьюзен Сарандон (Hollie Baylor), Алек Болдуин (Phil Devoss), Брюс МакГилл (Bill Banyon), Джуди Грир (Heather Baylor), Джессика Бил (Ellen Kishmore), Пол Шнайдер (Jessie Baylor), ЛЛаудон Уэйнрайт III (Uncle Dale), Гейлард Сартейн (Charles Dean)
Описание: В одночасье потеряв работу и девушку, молодой дизайнер Дрю Бэйлор собирается покончить с собой. Другое несчастье заставляет его вернуться в родной провинциальный городок. В полёте он знакомится со стюардессой Клэр…

Качество: WEB-DLRip
Формат: AVI
Видео: 688x384 (1.79:1), 23.976 fps, XviD build 73 ~1293 kbps avg, 0.20 bit/pixel
Аудио: 48 kHz, AC3 Dolby Digital, 3/2 (L,C,R,l,r) + LFE ch, ~384.00 kbps avg

Скриншоты

MediaInfo

Код:
Общее
Полное имя                       : H:\Elizabethtown_2005_WEB_DLRip_by_Dalemake.avi
Формат                           : AVI
Формат/Информация                : Audio Video Interleave
Размер файла                     : 1,46 Гбайт
Продолжительность                : 2 ч. 3 м.
Общий поток                      : 1686 Кбит/сек
Программа кодирования            : VirtualDubMod 1.5.10.3 | www.virtualdub-fr.org || (build 2550/release)
Библиотека кодирования           : VirtualDubMod build 2550/release
Видео
Идентификатор                    : 0
Формат                           : MPEG-4 Visual
Профиль формата                  : Advanced Simple@L5
Параметр BVOP формата            : 1
Параметр QPel формата            : Нет
Параметр GMC формата             : Без точки перехода
Параметр матрицы формата         : Выборочная
Идентификатор кодека             : XVID
Идентификатор кодека/Подсказка   : XviD
Продолжительность                : 2 ч. 3 м.
Битрейт                          : 1293 Кбит/сек
Ширина                           : 688 пикселей
Высота                           : 384 пикселя
Соотношение сторон               : 16:9
Частота кадров                   : 23,976 кадра/сек
Цветовое пространство            : YUV
Субдискретизация насыщенности    : 4:2:0
Битовая глубина                  : 8 бит
Тип развёртки                    : Прогрессивная
Метод сжатия                     : С потерями
Бит/(Пиксели*Кадры)              : 0.204
Размер потока                    : 1,12 Гбайт (77%)
Библиотека кодирования           : XviD 73
Аудио
Идентификатор                    : 1
Формат                           : AC-3
Формат/Информация                : Audio Coding 3
Расширение режима                : CM (complete main)
Идентификатор кодека             : 2000
Продолжительность                : 2 ч. 3 м.
Вид битрейта                     : Постоянный
Битрейт                          : 384 Кбит/сек
Каналы                           : 6 каналов
Расположение каналов             : Front: L C R, Side: L R, LFE
Частота                          : 48,0 КГц
Битовая глубина                  : 16 бит
Метод сжатия                     : С потерями
Размер потока                    : 340 Мбайт (23%)
Выравнивание                     : Разделение по промежуткам
Продолжительность промежутка     : 42  мс. (1,00 видеокадр)
Время предзагрузки промежутка    : 500  мс.

Сравнение

http://rutracker.org/forum/viewtopic.php?t=3673343
http://screenshotcomparison.com/comparison/24027/picture:0-http://rutracker.org/forum/viewtopic.php?t=283331
http://screenshotcomparison.com/comparison/24032/picture:0-http://rutracker.org/forum/viewtopic.php?t=564715
Не могу скачать, сиды видны, а на деле:

Там недокроп, судя по скриншотам
+ звук писал(а):

1. русский дубляж 0x0055 MPEG-1 Layer 3, 44100Hz 195 kb/s tot , Stereo Fraunhofer VBR
2. русский закадровый многоголосый 0x0055 (MP3) , 44100Hz 212 kb/s tot (2 chnls)
3. английский оригинал 0x0055 (MP3), 48000Hz 129 kb/s tot (2 chnls)
Ну и еще в контейнере многоголоска, не для поглощения в любом случае
-
Показать сообщения:    

Текущее время: Сегодня 05:40

Часовой пояс: GMT



Вы не можете начинать темы
Вы не можете отвечать на сообщения
Вы не можете редактировать свои сообщения
Вы не можете удалять свои сообщения
Вы не можете голосовать в опросах
Вы не можете прикреплять файлы к сообщениям
Вы не можете скачивать файлы