Важное объявление!
У Нас Все раздачи мультитрекерные, при нуле пиров в релизах, можете смело вставать на закачку!
 
Автор Сообщение

HUNTER

Стаж:
4 года 7 месяцев
Сообщений:
61460

Репутация: 101

[+] [-]
Вне форума [Профиль] [ЛС]

-Эксперимент: Зло / The Quiet Ones-«Эксперимент без принципов и правил»
-Страна: США, Великобритания
Студия: Exclusive Media Group, Hammer Film Productions Limited, Travelling Picture Show Company, The
Жанр: ужасы
Год выпуска: 2014
Мировая премьера: 1 апреля 2014
Российская премьера: 8 мая 2014, «A Company»
Дата выхода DVD: 7 октября 2014, «CD Land»
Продолжительность: 01:33:36
Перевод: Профессиональный (дублированный) [Лицензия]
Cубтитры: нет
Оригинальная аудиодорожка: нет-Режиссер: Джон Пог / John Pogue-В ролях: Джаред Харрис, Оливия Кук, Сэм Клафлин, Эрин Ричардс, Рори Флек-Бирн, Лори Кэлверт, Альдо Маланд, Макс Пиркис, Трэйси Рэй, Ричард Каннингэм-Описание: Неортодоксальный профессор, использующий в своей работе спорные методы, и его лучшие ученики проводят серию тестов на молодой пациентке, подводя ее к грани безумия. Эксперимент выходит из-под контроля, и начинают происходить ужасающие мистические явления с необратимыми последствиями. Группа понимает, что вызвала более страшные и темные силы, чем когда-либо могла себе представить, и против них она бессильна.-Бонусы: нет- -Релиз группы: -Качество: DVD5 R5
Формат: DVD-Video
Видео кодек: MPEG2
Аудио кодек: AC3
Видео: PAL 16:9 (720x576(0.539)) MPEG Video, 25,000 кадр/сек, 5586 Кбит/сек
Аудио: Russian (Dolby AC3, 6 ch) 448 Кбит/сек, 48,0 КГц--

DVDInfo

Title: Jeksperiment.Zlo.2014.DVD5
Size: 4.10 Gb ( 4 298 086,00 KBytes ) - DVD-5
Enabled regions: 1, 2, 3, 4, 5, 6, 7, 8
VTS_01 :
Play Length: 00:00:19
Video: PAL 16:9 (720x576) VBR, Auto Pan&Scan, Auto Letterboxed
Audio:
Not specified (Dolby AC3, 2 ch)
VTS_02 :
Play Length: 01:33:36
Video: PAL 16:9 (720x576) VBR, Auto Letterboxed
Audio:
Not specified (Dolby AC3, 6 ch)
* Menus Information *
VIDEO_TS Menu
Video:
PAL 16:9 (720x576) VBR
Auto Pan&Scan, Auto Letterboxed
English Language Unit :
Title Menu
VTS_01 Menu
Video:
PAL 16:9 (720x576) VBR
Auto Pan&Scan, Auto Letterboxed
Audio:
Not specified (Dolby AC3, 6 ch)
English Language Unit :
Root Menu
VTS_02 Menu
Video:
PAL 4:3 (720x576) VBR
English Language Unit :
Root Menu

MediaInfo

Общее
Полное имя : F:\Новинки 2014\Jeksperiment.Zlo.2014.DVD5\VIDEO_TS\VTS_02_2.VOB
Формат : MPEG-PS
Размер файла : 1024 Мбайт
Продолжительность : 23 м.
Режим общего битрейта : Переменный
Общий поток : 6156 Кбит/сек
Видео
Идентификатор : 224 (0xE0)
Формат : MPEG Video
Версия формата : Version 2
Профиль формата : Main@Main
Параметр BVOP формата : Да
Параметр матрицы формата : Выборочная
Параметр GOP формата : M=3, N=12
Format_Settings_PictureStructure : Frame
Продолжительность : 23 м.
Вид битрейта : Переменный
Битрейт : 5586 Кбит/сек
Максимальный битрейт : 9000 Кбит/сек
Ширина : 720 пикселей
Высота : 576 пикселей
Соотношение сторон : 16:9
Частота кадров : 25,000 кадров/сек
Стандарт вещания : PAL
Цветовое пространство : YUV
Субдискретизация насыщенности : 4:2:0
Битовая глубина : 8 бит
Тип развёртки : Чересстрочная
Порядок развёртки : Верхнее поле первое
Метод сжатия : С потерями
Бит/(Пиксели*Кадры) : 0.539
Временной код первого кадра : 00:23:28:20
Оригинал временного кода : Group of pictures header
Размер потока : 929 Мбайт (91%)
Основные цвета : BT.601 PAL
Характеристики трансфера : BT.470 System B, BT.470 System G
Коэффициенты матрицы : BT.601
Аудио
Идентификатор : 189 (0xBD)-128 (0x80)
Формат : AC-3
Формат/Информация : Audio Coding 3
Расширение режима : CM (complete main)
Параметр Endianness формата : Big
Режим смешивания : DVD-Video
Продолжительность : 23 м.
Вид битрейта : Постоянный
Битрейт : 448 Кбит/сек
Каналы : 6 каналов
Расположение каналов : Front: L C R, Side: L R, LFE
Частота : 48,0 КГц
Битовая глубина : 16 бит
Метод сжатия : С потерями
Задержка видео : -672 мс.
Размер потока : 74,5 Мбайт (7%)

Скриншоты меню

Скриншоты фильма


-
-Раздача от группы:

_________________
Показать сообщения:    

Текущее время: Сегодня 06:53

Часовой пояс: GMT



Вы не можете начинать темы
Вы не можете отвечать на сообщения
Вы не можете редактировать свои сообщения
Вы не можете удалять свои сообщения
Вы не можете голосовать в опросах
Вы не можете прикреплять файлы к сообщениям
Вы не можете скачивать файлы
Наши партнеры: интернет магазин Ивановского трикотажа textilla.ru