Важное объявление!
У Нас Все раздачи мультитрекерные, при нуле пиров в релизах, можете смело вставать на закачку!
 
Автор Сообщение

HUNTER

Стаж:
4 года 6 месяцев
Сообщений:
60994

Репутация: 101

[+] [-]
Вне форума [Профиль] [ЛС]

Эксперименты станции Скайлэб / Skylab Experiments
Дата/Год выпуска: 1973
Страна: США
Жанр: Документальный
Продолжительность: 00:10:52+00:03:12+00:02:44
Перевод: Одноголосый закадровый - Slavnus Spacedust
Русские субтитры: есть
Формат субтитров: softsub (SRT)
Доп. информация о субтитрах: авторы перевода - Anna Spacedust & Astra Stellari
Оригинальная аудиодорожка: есть, английский
Режиссер: NASA
Описание: Три фильма об экспериментах на американской орбитальной станции Скайлэб:
С019. Ультрафиолетовая звёздная астрономия
C190. Многоспектральный фотографический комплекс
С191. Инфракрасный спектрометр
Сэмпл: http://sendfile.su/1218628
Качество: WEBRip
Формат: MKV
Видео: AVC, 640*480 (4:3), 640*360 (16:9), ~600-1100 kbps, 25 fps
Аудио 1: (русский) AC3, 192 kbps, 48 kHz, 2 ch
Аудио 2: (английский) AAC, ~96 kbps, 44.1 kHz, 2 ch

MediaInfo S019 - Ultraviolet Stellar Astronomy

GeneralUnique ID : 242482220443666886547117001949825368026 (0xB66C607EB502AA519C9AC033C3CA7FDA)Complete name : S:\00. SpaceDust\02.USA & Europe\! NASA\1973-1980 - Skylab\1973 - Skylab Experiments S019, S190, S191\S019 - Ultraviolet Stellar Astronomy.mkvFormat : MatroskaFile size : 105 MiBDuration : 10mn 51sOverall bit rate : 1 350 KbpsEncoded date : UTC 2016-01-30 17:12:31Writing application : mkvmerge v8.5.1 ('Where you lead I will follow') 32bitWriting library : libebml v1.3.3 + libmatroska v1.4.4
VideoID : 1Format : AVCFormat/Info : Advanced Video CodecFormat profile : Baseline@L3.0Format settings, CABAC : NoFormat settings, ReFrames : 2 framesCodec ID : V_MPEG4/ISO/AVCDuration : 10mn 51sWidth : 640 pixelsHeight : 480 pixelsDisplay aspect ratio : 4:3Frame rate : 25.000 fpsColor space : YUVChroma subsampling : 4:2:0Bit depth : 8 bitsScan type : ProgressiveLanguage : EnglishColor primaries : BT.601-6 525, BT.1358 525, BT.1700 NTSC, SMPTE 170MTransfer characteristics : BT.709-5, BT.1361Matrix coefficients : BT.601-6 525, BT.1358 525, BT.1700 NTSC, SMPTE 170M
Audio #1ID : 2Format : AC-3Format/Info : Audio Coding 3Mode extension : CM (complete main)Codec ID : A_AC3Duration : 10mn 51sBit rate mode : ConstantBit rate : 192 KbpsChannel(s) : 2 channelsChannel positions : Front: L RSampling rate : 48.0 KHzBit depth : 16 bitsCompression mode : LossyStream size : 14.9 MiB (14%)Title : VO by Slavnus SpacedustLanguage : Russian
Audio #2ID : 3Format : AACFormat/Info : Advanced Audio CodecFormat profile : LCCodec ID : A_AACDuration : 10mn 51sChannel(s) : 2 channelsChannel positions : Front: L RSampling rate : 44.1 KHzCompression mode : LossyLanguage : English
TextID : 4Format : UTF-8Codec ID : S_TEXT/UTF8Codec ID/Info : UTF-8 Plain TextTitle : Translated by Anna SpacedustLanguage : Russian

MediaInfo S190 - Multispectral Photographic Facility

GeneralUnique ID : 199951471720653750826045991877758091930 (0x966D40AFB591C2989CA8F5BCBEBB029A)Complete name : S:\00. SpaceDust\02.USA & Europe\! NASA\1973-1980 - Skylab\1973 - Skylab Experiments S019, S190, S191\S190 - Multispectral Photographic Facility.mkvFormat : MatroskaFile size : 14.0 MiBDuration : 3mn 11sOverall bit rate : 613 KbpsEncoded date : UTC 2016-03-17 11:43:12Writing application : mkvmerge v8.5.1 ('Where you lead I will follow') 32bitWriting library : libebml v1.3.3 + libmatroska v1.4.4
VideoID : 1Format : AVCFormat/Info : Advanced Video CodecFormat profile : Baseline@L3.0Format settings, CABAC : NoFormat settings, ReFrames : 1 frameCodec ID : V_MPEG4/ISO/AVCDuration : 3mn 11sWidth : 640 pixelsHeight : 360 pixelsDisplay aspect ratio : 16:9Frame rate mode : VariableFrame rate : 25.000 fpsColor space : YUVChroma subsampling : 4:2:0Bit depth : 8 bitsScan type : Progressive
Audio #1ID : 2Format : AC-3Format/Info : Audio Coding 3Mode extension : CM (complete main)Codec ID : A_AC3Duration : 3mn 11sBit rate mode : ConstantBit rate : 192 KbpsChannel(s) : 1 channelChannel positions : Front: CSampling rate : 48.0 KHzBit depth : 16 bitsCompression mode : LossyStream size : 4.39 MiB (31%)Title : VO by Slavnus SpacedustLanguage : Russian
Audio #2ID : 3Format : AACFormat/Info : Advanced Audio CodecFormat profile : LCCodec ID : A_AACDuration : 3mn 11sChannel(s) : 2 channelsChannel positions : Front: L RSampling rate : 44.1 KHzCompression mode : LossyLanguage : English
TextID : 4Format : UTF-8Codec ID : S_TEXT/UTF8Codec ID/Info : UTF-8 Plain TextTitle : Translated by Anna SpacedustLanguage : Russian

MediaInfo S191 - Infrared Spectrometer

GeneralUnique ID : 207515667182810121184277140580579526438 (0x9C1E1050FB63194DBE06451965C9C726)Complete name : S:\00. SpaceDust\02.USA & Europe\! NASA\1973-1980 - Skylab\1973 - Skylab Experiments S019, S190, S191\S191 - Infrared Spectrometer.mkvFormat : MatroskaFile size : 26.0 MiBDuration : 2mn 43sOverall bit rate : 1 335 KbpsEncoded date : UTC 2016-01-30 12:49:16Writing application : mkvmerge v8.5.1 ('Where you lead I will follow') 32bitWriting library : libebml v1.3.3 + libmatroska v1.4.4
VideoID : 1Format : AVCFormat/Info : Advanced Video CodecFormat profile : Baseline@L3.0Format settings, CABAC : NoFormat settings, ReFrames : 2 framesCodec ID : V_MPEG4/ISO/AVCDuration : 2mn 43sWidth : 640 pixelsHeight : 480 pixelsDisplay aspect ratio : 4:3Frame rate : 25.000 fpsColor space : YUVChroma subsampling : 4:2:0Bit depth : 8 bitsScan type : ProgressiveLanguage : EnglishColor primaries : BT.601-6 525, BT.1358 525, BT.1700 NTSC, SMPTE 170MTransfer characteristics : BT.709-5, BT.1361Matrix coefficients : BT.601-6 525, BT.1358 525, BT.1700 NTSC, SMPTE 170M
Audio #1ID : 2Format : AC-3Format/Info : Audio Coding 3Mode extension : CM (complete main)Codec ID : A_AC3Duration : 2mn 43sBit rate mode : ConstantBit rate : 192 KbpsChannel(s) : 2 channelsChannel positions : Front: L RSampling rate : 48.0 KHzBit depth : 16 bitsCompression mode : LossyStream size : 3.75 MiB (14%)Title : VO by Slavnus SpacedustLanguage : Russian
Audio #2ID : 3Format : AACFormat/Info : Advanced Audio CodecFormat profile : LCCodec ID : A_AACDuration : 2mn 43sChannel(s) : 2 channelsChannel positions : Front: L RSampling rate : 44.1 KHzCompression mode : LossyLanguage : English
TextID : 4Format : UTF-8Codec ID : S_TEXT/UTF8Codec ID/Info : UTF-8 Plain TextTitle : Translated by Anna Spacedust & Astra StellariLanguage : Russian

Скриншоты




_________________
Показать сообщения:    

Текущее время: Сегодня 13:35

Часовой пояс: GMT



Вы не можете начинать темы
Вы не можете отвечать на сообщения
Вы не можете редактировать свои сообщения
Вы не можете удалять свои сообщения
Вы не можете голосовать в опросах
Вы не можете прикреплять файлы к сообщениям
Вы не можете скачивать файлы
Наши партнеры: интернет магазин Ивановского трикотажа textilla.ru