Ивановский Торрент трекер
Яндекс.Погода
 

[Цитировать]
HUNTER

Экипажи кораблей "Союз" - "Аполлон"
Дата/Год выпуска: 1974
Страна: СССР
Жанр: Документальный
Продолжительность: 00:21:17
Перевод: Не требуется
Режиссер: Николай Макаров
Описание: В фильме показана работа советских и американских специалистов по подготовке совместного эксперимента.
качество: DVDRip
формат: MKV
Видео: X264 640x480 23.976fps 1500kbps
Аудио: AC3 48000Hz stereo 160kbps

MediaInfo

GeneralUnique ID : 218379875421239101168218001320038847667 (0xA44A6F234F426EA7A554951BEF3B54B3)Complete name : C:\Documents and Settings\User\Мои документы\Экипажи кораблей Союз - Аполлон (1974).mkvFormat : MatroskaFormat version : Version 4 / Version 2File size : 252 MiBDuration : 21mn 17sOverall bit rate : 1 657 KbpsEncoded date : UTC 2014-04-24 15:35:55Writing application : mkvmerge v6.2.0 ('Promised Land') built on Apr 28 2013 12:22:01Writing library : libebml v1.3.0 + libmatroska v1.4.0
VideoID : 1Format : AVCFormat/Info : Advanced Video CodecFormat profile : Baseline@L3.0Format settings, CABAC : NoFormat settings, ReFrames : 2 framesCodec ID : V_MPEG4/ISO/AVCDuration : 21mn 17sBit rate : 1 500 KbpsWidth : 640 pixelsHeight : 480 pixelsDisplay aspect ratio : 4:3Frame rate mode : ConstantFrame rate : 23.976 fpsColor space : YUVChroma subsampling : 4:2:0Bit depth : 8 bitsScan type : ProgressiveBits/(Pixel*Frame) : 0.159Stream size : 223 MiB (88%)Language : EnglishDefault : YesForced : NoColor primaries : BT.601 NTSCTransfer characteristics : BT.709Matrix coefficients : BT.601
AudioID : 2Format : AC-3Format/Info : Audio Coding 3Mode extension : CM (complete main)Format settings, Endianness : BigCodec ID : A_AC3Duration : 21mn 17sBit rate mode : ConstantBit rate : 160 KbpsChannel count : 2 channelsChannel positions : Front: L RSampling rate : 48.0 KHzBit depth : 16 bitsCompression mode : LossyStream size : 24.4 MiB (10%)Default : YesForced

Скриншоты

Показать сообщения:    

Текущее время: 22-Окт 23:38

Часовой пояс: UTC - 1


Вы не можете начинать темы
Вы не можете отвечать на сообщения
Вы не можете редактировать свои сообщения
Вы не можете удалять свои сообщения
Вы не можете голосовать в опросах
Вы не можете прикреплять файлы к сообщениям
Вы не можете скачивать файлы

!ВНИМАНИЕ!
Сайт не предоставляет электронные версии произведений, а занимается лишь коллекционированием и каталогизацией ссылок, присылаемых и публикуемых на форуме нашими читателями. Если вы являетесь правообладателем какого-либо представленного материала и не желаете, чтобы ссылка на него находилась в нашем каталоге, свяжитесь с нами, и мы незамедлительно удалим ее. Файлы для обмена на трекере предоставлены пользователями сайта, и администрация не несет ответственности за их содержание. Просьба не заливать файлы, защищенные авторскими правами, а также файлы нелегального содержания!