Важное объявление!
У Нас Все раздачи мультитрекерные, при нуле пиров в релизах, можете смело вставать на закачку!
 
Автор Сообщение

HUNTER

Стаж:
4 года 7 месяцев
Сообщений:
61614

Репутация: 101

[+] [-]
Вне форума [Профиль] [ЛС]

-Год выпуска: 2002
Страна: США , Blue Tulip, Dimension Films
Жанр: Фантастика, боевик, триллер
Продолжительность: 01:47:02
Перевод: Дублированный, профессиональный многоголосый, авторский одноголосый
Субтитры: Русские , английские -В ролях: Кристиан Бэйл, Шон Бин, Эмили Уотсон, Тэй Диггз, Энгус МакФадьен, Шон Пертуи, Уильям Фихтнер, Джон Кеог, Дэвид Барраш, Дирк Мартенс, Кристиан Карманн, Мэттью Харбор, Эмили Сьеверт, Доминик Перселл, Майк Смит, Флориан Фитц, Дэнни Ли Кларк, Франческо Кабрас, Курт Уиммер, Анатоль Таубман, Брайан Конли, Алекса Саммер, Брайан В. Кук, Мехмет Куртулус, Дэвид Хеммингс, Клаус Шиндлер
Режиссёр: Курт Уиммер-Описание: Действие происходит в будущем, когда люди лишены возможности выражать какие-то эмоции, потому, что они запрещены. Это — та цена, которую человечество платит за устранение из своей жизни войны. Теперь книги, искусство и музыка находятся вне закона. А любое чувство уже преступление, наказуемое смертью. Для проведения в жизнь существующего правила используется принудительное применение лекарства «прозиум». Правительственный агент Джон Престон борется с теми, кто нарушает правила. В один прекрасный момент он забывает принять очередную дозу лекарства и с ним происходит духовное превращение, что приводит его к противоречию с самим собой и с начальством.-Качество: BDRip 1080p
Формат: MKV
Видео кодек: H.264
Аудио кодек: AC3, DTS, AAC
Видео: MPEG-4 AVC, 15.0 Mbps, 1918x820, 23.976 fps
Аудио:
1: DTS Russian / 5.1 / 48 kHz / 755 Кбит/с / 16-bit - Дублированный (West Video)
2: AC3 Russian / 5.1 / 48 kHz / 448 Кбит/с / 16-bit - Профессиональный многоголосый (Киномания)
3: AC3 Ukrainian / 2.0 / 48 kHz / 192 Кбит/с / 16-bit - Украинский многоголосый
4: AC3 Russian / 5.1 / 48 kHz / 448 Кбит/с / 16-bit - Авторский одноголосый (Строев)
5: DTS Russian / 5.1 / 48 kHz / 1510 Кбит/с / 24-bit - Авторский одноголосый (Королев)
6: DTS Russian / 5.1 / 48 kHz / 755 Кбит/с / 24-bit - Авторский одноголосый (Живов)
7: DTS English / 5.1 / 48 kHz / 1510 Кбит/с / 24-bit - Оригинал
8: AAC English / 2.0 / 48 kHz / 80 Кбит/с / 16-bit - Комментарии режиссера Курта Уиммера и продюсера Л. Фостера
9: AAC English / 2.0 / 48 kHz / 80 Кбит/с / 16-bit - Комментарии режиссера Курта Уиммера-Релиз от: Talian70-

MediaInfo

Код: copyText_writeLink('this.parentNode.parentNode.nextSibling.nextSibling'); Format : Matroska
Format version : Version 2
File size : 15.5 GiB
Duration : 1h 47mn
Overall bit rate : 20.7 Mbps
Movie name : -Talian-
Encoded date : UTC 2012-07-27 09:49:46
Writing application : mkvmerge v5.3.0 ('I could have danced') built on Feb 9 2012 10:38:07
Writing library : libebml v1.2.3 + libmatroska v1.3.0
Video
ID : 1
Format : AVC
Format/Info : Advanced Video Codec
Format profile : [url=mailto:High@L4.1]High@L4.1[/url]
Format settings, CABAC : Yes
Format settings, ReFrames : 5 frames
Codec ID : V_MPEG4/ISO/AVC
Duration : 1h 47mn
Nominal bit rate : 15.0 Mbps
Width : 1 918 pixels
Height : 820 pixels
Display aspect ratio : 2.35:1
Frame rate : 23.976 fps
Color space : YUV
Chroma subsampling : 4:2:0
Bit depth : 8 bits
Scan type : Progressive
Bits/(Pixel*Frame) : 0.398
Title : Equilibrium 2002 1080p BluRay DD5.1 x264-CRiSC
Writing library : x264 core 120 r2120 0c7dab9
Encoding settings : cabac=1 / ref=5 / deblock=1:-3:-3 / analyse=0x3:0x133 / me=umh / subme=11 / psy=1 / psy_rd=1.05:0.00 / mixed_ref=1 / me_range=96 / chroma_me=1 / trellis=2 / 8x8dct=1 / cqm=0 / deadzone=21,11 / fast_pskip=0 / chroma_qp_offset=-2 / threads=12 / sliced_threads=0 / nr=0 / decimate=0 / interlaced=0 / bluray_compat=0 / constrained_intra=0 / bframes=15 / b_pyramid=2 / b_adapt=2 / b_bias=0 / direct=3 / weightb=1 / open_gop=0 / weightp=2 / keyint=250 / keyint_min=23 / scenecut=40 / intra_refresh=0 / rc_lookahead=40 / rc=2pass / mbtree=0 / bitrate=15000 / ratetol=1.0 / qcomp=0.60 / qpmin=0 / qpmax=69 / qpstep=4 / cplxblur=20.0 / qblur=0.5 / vbv_maxrate=50000 / vbv_bufsize=62500 / nal_hrd=none / ip_ratio=1.40 / pb_ratio=1.30 / aq=1:0.80
Language : English
Default : No
Forced : No
Color primaries : BT.709-5, BT.1361, IEC 61966-2-4, SMPTE RP177
Transfer characteristics : BT.709-5, BT.1361
Matrix coefficients : BT.709-5, BT.1361, IEC 61966-2-4 709, SMPTE RP177
Audio #1
ID : 2
Format : DTS
Format/Info : Digital Theater Systems
Codec ID : A_DTS
Duration : 1h 47mn
Bit rate mode : Constant
Bit rate : 755 Kbps
Channel(s) : 6 channels
Channel positions : Front: L C R, Side: L R, LFE
Sampling rate : 48.0 KHz
Bit depth : 24 bits
Compression mode : Lossy
Stream size : 578 MiB (4%)
Title : DUB-West Video
Language : Russian
Default : Yes
Forced : No
Audio #2
ID : 3
Format : AC-3
Format/Info : Audio Coding 3
Mode extension : CM (complete main)
Format settings, Endianness : Big
Codec ID : A_AC3
Duration : 1h 47mn
Bit rate mode : Constant
Bit rate : 448 Kbps
Channel(s) : 6 channels
Channel positions : Front: L C R, Side: L R, LFE
Sampling rate : 48.0 KHz
Bit depth : 16 bits
Compression mode : Lossy
Stream size : 343 MiB (2%)
Title : MVO-Киномания
Language : Russian
Default : No
Forced : No
Audio #3
ID : 4
Format : AC-3
Format/Info : Audio Coding 3
Mode extension : CM (complete main)
Format settings, Endianness : Big
Codec ID : A_AC3
Duration : 1h 47mn
Bit rate mode : Constant
Bit rate : 192 Kbps
Channel(s) : 2 channels
Channel positions : Front: L R
Sampling rate : 48.0 KHz
Bit depth : 16 bits
Compression mode : Lossy
Stream size : 147 MiB (1%)
Title : MVO
Language : Ukrainian
Default : No
Forced : No
Audio #4
ID : 5
Format : AC-3
Format/Info : Audio Coding 3
Mode extension : CM (complete main)
Format settings, Endianness : Big
Codec ID : A_AC3
Duration : 1h 47mn
Bit rate mode : Constant
Bit rate : 448 Kbps
Channel(s) : 6 channels
Channel positions : Front: L C R, Side: L R, LFE
Sampling rate : 48.0 KHz
Bit depth : 16 bits
Compression mode : Lossy
Stream size : 343 MiB (2%)
Title : AVO-Д. Строев
Language : Russian
Default : No
Forced : No
Audio #5
ID : 6
Format : DTS
Format/Info : Digital Theater Systems
Codec ID : A_DTS
Duration : 1h 47mn
Bit rate mode : Constant
Bit rate : 1 510 Kbps
Channel(s) : 6 channels
Channel positions : Front: L C R, Side: L R, LFE
Sampling rate : 48.0 KHz
Bit depth : 24 bits
Compression mode : Lossy
Stream size : 1.13 GiB (7%)
Title : AVO-В.Королев
Language : Russian
Default : No
Forced : No
Audio #6
ID : 7
Format : DTS
Format/Info : Digital Theater Systems
Codec ID : A_DTS
Duration : 1h 47mn
Bit rate mode : Constant
Bit rate : 755 Kbps
Channel(s) : 6 channels
Channel positions : Front: L C R, Side: L R, LFE
Sampling rate : 48.0 KHz
Bit depth : 24 bits
Compression mode : Lossy
Stream size : 578 MiB (4%)
Title : AVO-Ю.Живов
Language : Russian
Default : No
Forced : No
Audio #7
ID : 8
Format : DTS
Format/Info : Digital Theater Systems
Codec ID : A_DTS
Duration : 1h 47mn
Bit rate mode : Constant
Bit rate : 1 510 Kbps
Channel(s) : 6 channels
Channel positions : Front: L C R, Side: L R, LFE
Sampling rate : 48.0 KHz
Bit depth : 24 bits
Compression mode : Lossy
Stream size : 1.13 GiB (7%)
Title : Original
Language : English
Default : No
Forced : No
Audio #8
ID : 9
Format : AAC
Format/Info : Advanced Audio Codec
Format profile : HE-AAC / LC
Codec ID : A_AAC
Duration : 1h 47mn
Channel(s) : 2 channels
Channel positions : Front: L R
Sampling rate : 48.0 KHz / 24.0 KHz
Compression mode : Lossy
Title : Commentary1
Language : English
Default : No
Forced : No
Audio #9
ID : 10
Format : AAC
Format/Info : Advanced Audio Codec
Format profile : HE-AAC / LC
Codec ID : A_AAC
Duration : 1h 47mn
Channel(s) : 2 channels
Channel positions : Front: L R
Sampling rate : 48.0 KHz / 24.0 KHz
Compression mode : Lossy
Title : Commentary2
Language : English
Default : No
Forced : No
Text #1
ID : 11
Format : UTF-8
Codec ID : S_TEXT/UTF8
Codec ID/Info : UTF-8 Plain Text
Title : Sub
Language : Russian
Default : No
Forced : No
Text #2
ID : 12
Format : UTF-8
Codec ID : S_TEXT/UTF8
Codec ID/Info : UTF-8 Plain Text
Title : Sub
Language : English
Default : No
Forced : No
Menu
00:00:00.000 : en:00:00:00.000
00:08:37.559 : en:00:08:37.559
00:18:27.523 : en:00:18:27.523
00:25:41.874 : en:00:25:41.874
00:37:04.764 : en:00:37:04.764
00:47:40.858 : en:00:47:40.858
00:56:43.609 : en:00:56:43.609
01:03:10.120 : en:01:03:10.120
01:11:55.269 : en:01:11:55.269
01:23:47.439 : en:01:23:47.439
01:27:14.729 : en:01:27:14.729
01:40:31.525 : en:01:40:31.525

Скриншоты


_________________
Показать сообщения:    

Текущее время: Сегодня 07:13

Часовой пояс: GMT



Вы не можете начинать темы
Вы не можете отвечать на сообщения
Вы не можете редактировать свои сообщения
Вы не можете удалять свои сообщения
Вы не можете голосовать в опросах
Вы не можете прикреплять файлы к сообщениям
Вы не можете скачивать файлы
Наши партнеры: интернет магазин Ивановского трикотажа textilla.ru