Важное объявление!
У Нас Все раздачи мультитрекерные, при нуле пиров в релизах, можете смело вставать на закачку!
 
Автор Сообщение

HUNTER

Стаж:
4 года 8 месяцев
Сообщений:
62050

Репутация: 101

[+] [-]
Вне форума [Профиль] [ЛС]

Эй, Арнольд!
Hey Arnold! The Movie
«A Big Problem Calls For A Big Head»
Год выпуска: 2002
Страна: США
Жанр: мультфильм, комедия, приключения, семейный
Продолжительность: 01:15:46
Перевод:
Профессиональный (Дублированный) - CTC
Профессиональный (Дублированный) - THT
Профессиональный (Многоголосый закадровый) - Премьер Видео
русские субтитры: нет-Режиссёр: Так Такер : Tuck Tucker-Роли озвучивали: Спенсер Клейн, Франческа Смит, Дэн Кастелланета, Тресс МакНилл, Пол Сорвино, Дженнифер Джейсон Ли, Кристофер Ллойд, Винсент Скьявелли, Морис ЛаМарш, Кэт Сауси
Роли дублировали: Ирина Гришина, Андрей Бархударов, Вячеслав Баранов, Дмитрий Филимонов, Александр Рыжков-Описание: У безжалостного магната родился злодейский план: снести родной квартал Арнольда и выстроить на его месте огромный супермаркет. Время пошло, и кто-то должен встать на защиту уютного уголка. И этим кем-то станет… Арнольд.
С хвостатой занудой Хельгой, тайно влюбленной в него, и с лучшим другом Джеральдом Арнольд устраивает забастовку, чтобы вернуть слову «прогресс» его истинное значение — находить новое очарование в старом добром квартале, который он называет своим «домом».- релиз: -- Большое спасибо Lexa1988-L1 за все дороги;
- Покупка, работа с WEB-DL и звуком -Azureus--Качество: WEB-DL 720p
Формат: MKV
Видео кодек: AVC
Аудио кодек: AC3
Видео: 1280x720 , 23,976 fps, ~4003 kbps avg, 0.181 bit/pixel
Аудио #1: [RUS] 48 kHz, AC3 Dolby Digital, 2/0 (L,R) ch, ~192 kbps - CTC
Аудио #2: [RUS] 48 kHz, AC3 Dolby Digital, 2/0 (L,R) ch, ~192 kbps - THT
Аудио #3: [RUS] 48 kHz, AC3 Dolby Digital, 2/0 (L,R) ch, ~192 kbps - MVO
Аудио #4: [ENG] 48 kHz, AC3 Dolby Digital, 3/2 (L,C,R,l,r) + LFE ch, ~448 kbps avg
субтитры: английские
навигация по главам: 14 глав (именные)

MediaInfo

Общее
Уникальный идентификатор : 221846364862970268244767562233238219087 (0xA6E60E434AEE38D29720BA91A3FB694F)
Полное имя : D:\Im\Арнольд\Hey Arnold! The Movie.2002.WEB-DL 720p.mkv
Формат : Matroska
Версия формата : Version 4 / Version 2
Размер файла : 2,66 Гбайт
Продолжительность : 1 ч. 15 м.
Общий поток : 5030 Кбит/сек
Название фильма : Hey Arnold! The Movie.2002.WEB-DL 720p -Azureus-
Дата кодирования : UTC 2015-06-01 19:48:45
Программа кодирования : mkvmerge v7.9.0 ('Birds') 32bit
Библиотека кодирования : libebml v1.3.1 + libmatroska v1.4.2
DURATION : 01:09:16.440000000
NUMBER_OF_FRAMES : 878
NUMBER_OF_BYTES : 40040
_STATISTICS_WRITING_APP : mkvmerge v7.9.0 ('Birds') 32bit
_STATISTICS_WRITING_DATE_UTC : 2015-06-01 19:48:45
_STATISTICS_TAGS : BPS DURATION NUMBER_OF_FRAMES NUMBER_OF_BYTES
Видео
Идентификатор : 1
Формат : AVC
Формат/Информация : Advanced Video Codec
Профиль формата : High@L3.1
Параметр CABAC формата : Нет
Параметр ReFrames формата : 2 кадра
Идентификатор кодека : V_MPEG4/ISO/AVC
Продолжительность : 1 ч. 15 м.
Битрейт : 3906 Кбит/сек
Ширина : 1280 пикселей
Высота : 720 пикселей
Соотношение сторон : 16:9
Частота кадров : 23,976 кадра/сек
Цветовое пространство : YUV
Субдискретизация насыщенности : 4:2:0
Битовая глубина : 8 бит
Тип развёртки : Прогрессивная
Бит/(Пиксели*Кадры) : 0.177
Размер потока : 2,07 Гбайт (78%)
Язык : English
Default : Да
Forced : Нет
Основные цвета : BT.709-5, BT.1361, IEC 61966-2-4, SMPTE RP177
Характеристики трансфера : BT.709-5, BT.1361
Коэффициенты матрицы : BT.709-5, BT.1361, IEC 61966-2-4 709, SMPTE RP177
Аудио #1
Идентификатор : 2
Формат : AC-3
Формат/Информация : Audio Coding 3
Расширение режима : CM (complete main)
Идентификатор кодека : A_AC3
Продолжительность : 1 ч. 15 м.
Вид битрейта : Постоянный
Битрейт : 192 Кбит/сек
Каналы : 2 канала
Расположение каналов : Front: L R
Частота : 48,0 КГц
Битовая глубина : 16 бит
Метод сжатия : С потерями
Размер потока : 104 Мбайт (4%)
Заголовок : DUB - CTC
Язык : Russian
Default : Да
Forced : Нет
Аудио #2
Идентификатор : 3
Формат : AC-3
Формат/Информация : Audio Coding 3
Расширение режима : CM (complete main)
Идентификатор кодека : A_AC3
Продолжительность : 1 ч. 15 м.
Вид битрейта : Постоянный
Битрейт : 192 Кбит/сек
Каналы : 2 канала
Расположение каналов : Front: L R
Частота : 48,0 КГц
Битовая глубина : 16 бит
Метод сжатия : С потерями
Размер потока : 104 Мбайт (4%)
Заголовок : DUB - THT
Язык : Russian
Default : Нет
Forced : Нет
Аудио #3
Идентификатор : 4
Формат : AC-3
Формат/Информация : Audio Coding 3
Расширение режима : CM (complete main)
Идентификатор кодека : A_AC3
Продолжительность : 1 ч. 15 м.
Вид битрейта : Постоянный
Битрейт : 192 Кбит/сек
Каналы : 2 канала
Расположение каналов : Front: L R
Частота : 48,0 КГц
Битовая глубина : 16 бит
Метод сжатия : С потерями
Размер потока : 104 Мбайт (4%)
Заголовок : MVO
Язык : Russian
Default : Нет
Forced : Нет
Аудио #4
Идентификатор : 5
Формат : AC-3
Формат/Информация : Audio Coding 3
Расширение режима : CM (complete main)
Идентификатор кодека : A_AC3
Продолжительность : 1 ч. 15 м.
Вид битрейта : Постоянный
Битрейт : 448 Кбит/сек
Каналы : 6 каналов
Расположение каналов : Front: L C R, Side: L R, LFE
Частота : 48,0 КГц
Битовая глубина : 16 бит
Метод сжатия : С потерями
Размер потока : 243 Мбайт (9%)
Заголовок : ENG
Язык : English
Default : Нет
Forced : Нет
Текст
Идентификатор : 6
Формат : UTF-8
Идентификатор кодека : S_TEXT/UTF8
Идентификатор кодека/Информация : UTF-8 Plain Text
Заголовок : Eng Sub
Язык : English
Default : Нет
Forced : Нет
Меню
00:00:00.000 : en:Change Is Good
00:05:08.000 : en:Big Bob's Beepers
00:10:02.000 : en:Blockapalooza
00:15:18.000 : en:Unhappy Neighbors
00:21:36.000 : en:Tomato Document
00:26:35.000 : en:Future Tech Industries
00:32:40.000 : en:Equipment Specialist
00:37:07.000 : en:Backup Plan
00:42:09.000 : en:Another Clue From Deep Voice
00:47:11.000 : en:Hopeless Mission
00:52:35.000 : en:Helga's Confession
00:58:47.000 : en:Runaway Bus
01:03:48.000 : en:Stopping The Bulldozers
01:06:48.000 : en:We Saved the Neighborhood.
____________________________________________
Стою на раздаче до 5 дней.
Просьба скачавшим как можно дольше не покидать раздачу!
ВСЕМ ПРИЯТНОГО ПРОСМОТРА!_________________________________________

_________________
Показать сообщения:    

Текущее время: Сегодня 19:46

Часовой пояс: GMT



Вы не можете начинать темы
Вы не можете отвечать на сообщения
Вы не можете редактировать свои сообщения
Вы не можете удалять свои сообщения
Вы не можете голосовать в опросах
Вы не можете прикреплять файлы к сообщениям
Вы не можете скачивать файлы
Наши партнеры: интернет магазин Ивановского трикотажа textilla.ru