Ивановский Торрент трекер
Яндекс.Погода
 

[Цитировать]
HUNTER

Эдисон и Лео : Edison & Leo Год выпуска: 2008
Страна: Канада
Жанр: мультфильм, фэнтези, комедия
Продолжительность: 01:20:25
Перевод: Профессиональный (Многоголосый закадровый)
субтитры: отсутствуют-Режиссёр: Нил Барнс : Neil Burns-Роли озвучивали: Пауэрс Бут, Грегори Смит, Карли Поуп, Джей Бразо, Скотт МакНил, Жаклин Самуда, Бен Коттон, Венус Терцо, Куинн Лорд, Эйдан Драммонд-Описание: Весь мир знает великого изобретателя Томаса Эдисона, человека неординарного, талантливого и успешного. Создатели истории «Эдисон и Лео» весьма вольно обошлись с биографией американского ученого и предпринимателя, но обеспечили себе железное алиби: персонажа, очень напоминающего человека, подарившего миру множество полезных изобретений, канадские мультипликаторы назвали…Джордж Ти Эдисон и представили его как человека, готового на все, лишь бы обойти конкурентов. Смотреть онлайн этот кукольный мульт для взрослых можно в нашем интернет-кинотеатре.
Упорно работая в своем огромном замке над созданием долговечной лампы накаливания, изобретатель Эдисон много экспериментирует с разными материалами: в качестве нити он тестирует и кокосовые волоски, и бамбук и даже волос из бороды своего помощника. Времени побыть с детьми у отца семейства совсем нет, что очень огорчает его младшего сына Лео. Мальчик просит разрешения присутствовать на обеде с гостями, прибывшими издалека, но Эдисон планирует обсудить с восточными визитерами одно дельце, которое лучше держать в секрете…- релиз: -Качество: BDRemux 1080p
Формат: MKV
Видео кодек: AVC
Аудио кодек: AC3
Видео: 1980x1080 , 23,976 fps, ~28,1 Мbps avg, 0.564 bit/pixel
Аудио #1: [RUS] 48 kHz, AC3 Dolby Digital, 2/0 (L,R) ch, ~192 kbps kbps avg
Аудио #2: [ENG] 48 kHz, AC3 Dolby Digital, 3/2 (L,C,R,l,r) + LFE ch, ~640 kbps

MediaInfo

Общее
Уникальный идентификатор : 215744866775742526955950949123782959526 (0xA24EF32E6C8A0D5F9E793F00EF5961A6)
Полное имя : D:\Im\Эдисон и Лео\Edison & Leo.2008.BDRemux 1080p.mkv
Формат : Matroska
Версия формата : Version 4 / Version 2
Размер файла : 16,5 Гбайт
Продолжительность : 1 ч. 20 м.
Режим общего битрейта : Переменный
Общий поток : 29,5 Мбит/сек
Название фильма : Edison & Leo.2008.BDRemux 1080p [-Azureus-]
Дата кодирования : UTC 2014-03-14 14:39:43
Программа кодирования : mkvmerge v6.8.0 ('Theme for Great Cities') 32bit built on Mar 2 2014 21:27:07
Библиотека кодирования : libebml v1.3.0 + libmatroska v1.4.1
Видео
Идентификатор : 1
Формат : AVC
Формат/Информация : Advanced Video Codec
Профиль формата : High@L4.1
Параметр CABAC формата : Да
Параметр ReFrames формата : 4 кадра
Параметр GOP формата : M=3, N=24
Идентификатор кодека : V_MPEG4/ISO/AVC
Продолжительность : 1 ч. 20 м.
Вид битрейта : Переменный
Битрейт : 28,0 Мбит/сек
Максимальный битрейт : 35,0 Мбит/сек
Ширина : 1920 пикселей
Высота : 1080 пикселей
Соотношение сторон : 16:9
Режим частоты кадров : Постоянный
Частота кадров : 23,976 кадра/сек
Стандарт вещания : NTSC
Цветовое пространство : YUV
Субдискретизация насыщенности : 4:2:0
Битовая глубина : 8 бит
Тип развёртки : Прогрессивная
Бит/(Пиксели*Кадры) : 0.564
Размер потока : 15,7 Гбайт (95%)
Default : Да
Forced : Нет
Основные цвета : BT.709
Характеристики трансфера : BT.709
Коэффициенты матрицы : BT.709
Аудио #1
Идентификатор : 2
Формат : AC-3
Формат/Информация : Audio Coding 3
Расширение режима : CM (complete main)
Параметр Endianness формата : Big
Идентификатор кодека : A_AC3
Продолжительность : 1 ч. 20 м.
Вид битрейта : Постоянный
Битрейт : 192 Кбит/сек
Каналы : 2 канала
Расположение каналов : Front: L R
Частота : 48,0 КГц
Битовая глубина : 16 бит
Метод сжатия : С потерями
Размер потока : 110 Мбайт (1%)
Заголовок : MVO
Язык : Russian
Default : Да
Forced : Нет
Аудио #2
Идентификатор : 3
Формат : AC-3
Формат/Информация : Audio Coding 3
Расширение режима : CM (complete main)
Параметр Endianness формата : Big
Идентификатор кодека : A_AC3
Продолжительность : 1 ч. 20 м.
Вид битрейта : Постоянный
Битрейт : 640 Кбит/сек
Каналы : 6 каналов
Расположение каналов : Front: L C R, Side: L R, LFE
Частота : 48,0 КГц
Битовая глубина : 16 бит
Метод сжатия : С потерями
Размер потока : 368 Мбайт (2%)
Заголовок : ENG
Язык : English
Default : Нет
Forced : Нет
____________________________________________
Стою на раздаче до 5 дней.
Просьба скачавшим как можно дольше не покидать раздачу!
ВСЕМ ПРИЯТНОГО ПРОСМОТРА!_________________________________________


Показать сообщения:    

Текущее время: 13-Дек 17:10

Часовой пояс: UTC ± 0


Вы не можете начинать темы
Вы не можете отвечать на сообщения
Вы не можете редактировать свои сообщения
Вы не можете удалять свои сообщения
Вы не можете голосовать в опросах
Вы не можете прикреплять файлы к сообщениям
Вы не можете скачивать файлы

!ВНИМАНИЕ!
Сайт не предоставляет электронные версии произведений, а занимается лишь коллекционированием и каталогизацией ссылок, присылаемых и публикуемых на форуме нашими читателями. Если вы являетесь правообладателем какого-либо представленного материала и не желаете, чтобы ссылка на него находилась в нашем каталоге, свяжитесь с нами, и мы незамедлительно удалим ее. Файлы для обмена на трекере предоставлены пользователями сайта, и администрация не несет ответственности за их содержание. Просьба не заливать файлы, защищенные авторскими правами, а также файлы нелегального содержания!