Важное объявление!
У Нас Все раздачи мультитрекерные, при нуле пиров в релизах, можете смело вставать на закачку!
 
Автор Сообщение

HUNTER

Стаж:
4 года 8 месяцев
Сообщений:
62016

Репутация: 101

[+] [-]
Вне форума [Профиль] [ЛС]

Эдди «Орел» / Eddie the Eagle
Страна: Великобритания, США, Германия
Студия: Marv Films
Жанр: драма, комедия, биография, спорт
Год выпуска: 2016
Продолжительность: 01:45:43
Перевод: Профессиональный (дублированный)
Cубтитры: Rus, Eng
Оригинальная аудиодорожка: английский
Режиссер: Декстер Флетчер / Dexter Fletcher
В ролях: Тэрон Эджертон (Eddie Edwards), Хью Джекман (Bronson Peary), Кристофер Уокен (Warren Sharp), Джо Хартли (Janette), Том Костелло (Eddie (10 years old)), Кит Аллен (Terry), Дикон Толсон (UK Doctor), Джек Костелло (Eddie (15 years old)), Марк Бентон (Richmond the BOA Official), Тим МакИннерни (Dustin Target)
Описание: Фильм повествует о трамплинисте Эдди, по прозвищу «Орел». Он прославился благодаря своим неудачам, ибо на всех соревнованиях он занимал последние места.
[img]https://rating.kinopoisk.ru/394619.gif[/img]
Тип релиза: BDRip 720p
Контейнер: MKV
Видео: MPEG-4 AVC, 5020 Кбит/с, 1280x536, 23,976 fps
Аудио: Rus, DTS, 768 kb/s (6 ch), 48 kHz
Аудио 2: Eng, AC3, 640 kb/s (6 ch), 48 kHz
Формат субтитров: softsub (SRT)

MediaInfo

x264 [info]: frame I:1315 Avg QP:12.25 size:155679
x264 [info]: frame P:32832 Avg QP:13.98 size: 56690
x264 [info]: frame B:117942 Avg QP:15.89 size: 17090
Format : Matroska
Format version : Version 4 / Version 2
File size : 4.84 GiB
Duration : 1h 45mn
Overall bit rate : 6 558 Kbps
Movie name : Эдди «Орёл». (Tonik)
Encoded date : UTC 2016-08-18 12:59:30
Writing application : mkvmerge v7.1.0 ('Good Love') 64bit built on Jul 27 2014 13:06:55
Writing library : libebml v1.3.0 + libmatroska v1.4.1
_STATISTICS_WRITING_APP : mkvmerge v7.1.0 ('Good Love') 64bit built on Jul 27 2014 13:06:55
_STATISTICS_WRITING_DATE_UTC : 2016-08-18 12:59:30
_STATISTICS_TAGS : BPS DURATION NUMBER_OF_FRAMES NUMBER_OF_BYTES
DURATION : 01:45:43.414000000
NUMBER_OF_FRAMES : 594695
NUMBER_OF_BYTES : 608967680
Video
ID : 1
Format : AVC
Format/Info : Advanced Video Codec
Format profile : High@L4.1
Format settings, CABAC : Yes
Format settings, ReFrames : 12 frames
Codec ID : V_MPEG4/ISO/AVC
Duration : 1h 45mn
Bit rate : 5 020 Kbps
Width : 1 280 pixels
Height : 536 pixels
Display aspect ratio : 2.40:1
Frame rate mode : Constant
Frame rate : 23.976 fps
Color space : YUV
Chroma subsampling : 4:2:0
Bit depth : 8 bits
Scan type : Progressive
Bits/(Pixel*Frame) : 0.305
Stream size : 3.71 GiB (77%)
Writing library : x264 core 148 r2692kMod 64f4e24
Encoding settings : cabac=1 / ref=12 / deblock=1:-3:-3 / analyse=0x3:0x113 / me=umh / subme=11 / psy=1 / fade_compensate=0.00 / psy_rd=1.00:0.05 / mixed_ref=1 / me_range=32 / chroma_me=1 / trellis=2 / 8x8dct=1 / cqm=0 / deadzone=21,11 / fast_pskip=0 / chroma_qp_offset=-4 / threads=12 / lookahead_threads=2 / sliced_threads=0 / nr=0 / decimate=1 / interlaced=0 / bluray_compat=0 / constrained_intra=0 / fgo=0 / bframes=9 / b_pyramid=2 / b_adapt=2 / b_bias=0 / direct=3 / weightb=1 / open_gop=0 / weightp=2 / keyint=230 / keyint_min=23 / scenecut=40 / intra_refresh=0 / rc_lookahead=40 / rc=crf / mbtree=0 / crf=15.0000 / qcomp=0.65 / qpmin=0 / qpmax=69 / qpstep=4 / vbv_maxrate=50000 / vbv_bufsize=62500 / crf_max=0.0 / nal_hrd=none / filler=0 / ip_ratio=1.40 / pb_ratio=1.30 / aq=3:0.85
Language : English
Default : Yes
Forced : No
_STATISTICS_WRITING_APP : mkvmerge v7.1.0 ('Good Love') 64bit built on Jul 27 2014 13:06:55
_STATISTICS_WRITING_DATE_UTC : 2016-08-18 12:59:30
_STATISTICS_TAGS : BPS DURATION NUMBER_OF_FRAMES NUMBER_OF_BYTES
DURATION : 01:45:43.379000000
NUMBER_OF_FRAMES : 152089
NUMBER_OF_BYTES : 4081535797
Audio #1
ID : 2
Format : DTS
Format/Info : Digital Theater Systems
Mode : 16
Format settings, Endianness : Big
Codec ID : A_DTS
Duration : 1h 45mn
Bit rate mode : Constant
Bit rate : 768 Kbps
Channel(s) : 6 channels
Channel positions : Front: L C R, Side: L R, LFE
Sampling rate : 48.0 KHz
Bit depth : 24 bits
Compression mode : Lossy
Stream size : 581 MiB (12%)
Language : Russian
Default : Yes
Forced : No
Audio #2
ID : 3
Format : AC-3
Format/Info : Audio Coding 3
Mode extension : CM (complete main)
Format settings, Endianness : Big
Codec ID : A_AC3
Duration : 1h 45mn
Bit rate mode : Constant
Bit rate : 640 Kbps
Channel(s) : 6 channels
Channel positions : Front: L C R, Side: L R, LFE
Sampling rate : 48.0 KHz
Bit depth : 16 bits
Compression mode : Lossy
Stream size : 484 MiB (10%)
Language : English
Default : No
Forced : No
Text #1
ID : 4
Format : UTF-8
Codec ID : S_TEXT/UTF8
Codec ID/Info : UTF-8 Plain Text
Title : Forced
Language : Russian
Default : Yes
Forced : No
Text #2
ID : 5
Format : UTF-8
Codec ID : S_TEXT/UTF8
Codec ID/Info : UTF-8 Plain Text
Language : Russian
Default : No
Forced : No
Text #3
ID : 6
Format : UTF-8
Codec ID : S_TEXT/UTF8
Codec ID/Info : UTF-8 Plain Text
Title : Forced
Language : English
Default : No
Forced : No
Text #4
ID : 7
Format : UTF-8
Codec ID : S_TEXT/UTF8
Codec ID/Info : UTF-8 Plain Text
Language : English
Default : No
Forced : No
Text #5
ID : 8
Format : UTF-8
Codec ID : S_TEXT/UTF8
Codec ID/Info : UTF-8 Plain Text
Title : SDH
Language : English
Default : No
Forced : No
Menu
00:00:00.000 : en:00:00:00.000
00:03:33.171 : en:00:03:33.171
00:08:15.161 : en:00:08:15.161
00:12:06.684 : en:00:12:06.684
00:17:54.573 : en:00:17:54.573
00:21:31.081 : en:00:21:31.081
00:26:19.578 : en:00:26:19.578
00:31:41.566 : en:00:31:41.566
00:37:13.273 : en:00:37:13.273
00:41:46.963 : en:00:41:46.963
00:47:12.329 : en:00:47:12.329
00:50:19.350 : en:00:50:19.350
00:53:39.591 : en:00:53:39.591
00:56:57.581 : en:00:56:57.581
01:02:22.906 : en:01:02:22.906
01:08:16.884 : en:01:08:16.884
01:11:42.298 : en:01:11:42.298
01:17:05.788 : en:01:17:05.788
01:20:00.587 : en:01:20:00.587
01:23:23.457 : en:01:23:23.457
01:27:44.593 : en:01:27:44.593
01:31:40.120 : en:01:31:40.120
01:36:53.057 : en:01:36:53.057
01:40:42.078 : en:01:40:42.078

Скриншоты


_________________
Показать сообщения:    

Текущее время: Сегодня 01:03

Часовой пояс: GMT



Вы не можете начинать темы
Вы не можете отвечать на сообщения
Вы не можете редактировать свои сообщения
Вы не можете удалять свои сообщения
Вы не можете голосовать в опросах
Вы не можете прикреплять файлы к сообщениям
Вы не можете скачивать файлы
Наши партнеры: интернет магазин Ивановского трикотажа textilla.ru