Ивановский Торрент трекер
Яндекс.Погода
 

[Цитировать]
HUNTER

Эдди «Орел»Eddie the Eagle«The hysterical true life story of Britain's most famous ski jumper Eddie 'The Eagle' Edwards and his journey to Olympic fame»-
Год выпуска: 2016
Страна: Великобритания, США, Германия
Жанр: драма, комедия, биография, спорт
Продолжительность: 01:46:10-Перевод: Профессиональный (полное дублирование) [iTunes]
Субтитры: Нет
Режиссер: Декстер Флетчер / Dexter Fletcher
В ролях: Тэрон Эджертон (Eddie Edwards), Хью Джекман (Bronson Peary), Кристофер Уокен (Warren Sharp), Джо Хартли (Janette), Том Костелло (Eddie (10 years old)), Кит Аллен (Terry), Дикон Толсон (UK Doctor), Джек Костелло (Eddie (15 years old)), Марк Бентон (Richmond the BOA Official), Тим МакИннерни (Dustin Target), Эдвин Эндре (Matti Nykänen), Мэдс Сьёгард Петтерсен (Erik Moberg)-Описание: Фильм повествует о трамплинисте Эдди, по прозвищу «Орел». Он прославился благодаря своим неудачам, ибо на всех соревнованиях он занимал последние места.--Качество: WEB-DLRip-AVC
Контейнер: MKV
Видео кодек: AVC
Аудио кодек: AC3
Видео: AVC, 1040x432 (2.40:1), 1600 kbps, 23,976 fps, 0,149 bpp
Аудио: Русский / AC3 / 5.1 / 48 kHz / 384 kbps / 16 bit
Рип: and77200
-

Скриншоты

Media Info

General
Unique ID : 216396348708836577919026362145674307923 (0xA2CC6BB876AE0518B37085FE6B0B2953)
Complete name : G:\Торрент\Eddie.The.Eagle.2016.Dub.WEB-DLRip-AVC.mkv
Format : Matroska
Format version : Version 4 / Version 2
File size : 1.47 GiB
Duration : 1h 46mn
Overall bit rate : 1 983 Kbps
Encoded date : UTC 2016-05-30 21:43:33
Writing application : mkvmerge v7.8.0 ('River Man') 32bit built on Mar 27 2015 16:18:02
Writing library : libebml v1.3.1 + libmatroska v1.4.2
Video
ID : 1
Format : AVC
Format/Info : Advanced Video Codec
Format profile : High@L4.1
Format settings, CABAC : No
Format settings, ReFrames : 5 frames
Codec ID : V_MPEG4/ISO/AVC
Duration : 1h 46mn
Bit rate : 1 600 Kbps
Width : 1 040 pixels
Height : 432 pixels
Display aspect ratio : 2.40:1
Original display aspect ratio : 2.40:1
Frame rate : 23.976 fps
Color space : YUV
Chroma subsampling : 4:2:0
Bit depth : 8 bits
Scan type : Progressive
Bits/(Pixel*Frame) : 0.149
Stream size : 1.16 GiB (79%)
Writing library : x264 core 148 r2665M a01e339
Encoding settings : cabac=0 / ref=5 / deblock=0:-6:-6 / analyse=0x3:0 / me=umh / subme=8 / psy=1 / psy_rd=1.00:0.00 / mixed_ref=0 / me_range=15 / chroma_me=1 / trellis=0 / 8x8dct=1 / cqm=0 / deadzone=21,11 / fast_pskip=1 / chroma_qp_offset=-2 / threads=7 / lookahead_threads=1 / sliced_threads=0 / nr=0 / decimate=1 / interlaced=0 / bluray_compat=0 / constrained_intra=0 / bframes=5 / b_pyramid=2 / b_adapt=0 / b_bias=0 / direct=3 / weightb=0 / open_gop=0 / weightp=0 / keyint=230 / keyint_min=23 / scenecut=0 / intra_refresh=0 / rc=2pass / mbtree=0 / bitrate=1600 / ratetol=1.0 / qcomp=0.60 / qpmin=0 / qpmax=69 / qpstep=4 / cplxblur=20.0 / qblur=0.5 / ip_ratio=1.40 / pb_ratio=1.30 / aq=0
Language : English
Default : Yes
Forced : No
DURATION : 01:46:10.489000000
NUMBER_OF_FRAMES : 152739
NUMBER_OF_BYTES : 1273790785
_STATISTICS_WRITING_APP : mkvmerge v7.8.0 ('River Man') 32bit built on Mar 27 2015 16:18:02
_STATISTICS_WRITING_DATE_UTC : 2016-05-30 21:43:33
_STATISTICS_TAGS : BPS DURATION NUMBER_OF_FRAMES NUMBER_OF_BYTES
Color primaries : BT.709-5, BT.1361, IEC 61966-2-4, SMPTE RP177
Transfer characteristics : BT.709-5, BT.1361
Matrix coefficients : BT.709-5, BT.1361, IEC 61966-2-4 709, SMPTE RP177
Audio
ID : 2
Format : AC-3
Format/Info : Audio Coding 3
Mode extension : CM (complete main)
Codec ID : A_AC3
Duration : 1h 46mn
Bit rate mode : Constant
Bit rate : 384 Kbps
Channel(s) : 6 channels
Channel positions : Front: L C R, Side: L R, LFE
Sampling rate : 48.0 KHz
Bit depth : 16 bits
Compression mode : Lossy
Stream size : 292 MiB (19%)
Language : Russian
Default : Yes
Forced : No
DURATION : 01:45:36.384000000
NUMBER_OF_FRAMES : 198012
NUMBER_OF_BYTES : 304146432
_STATISTICS_WRITING_APP : mkvmerge v7.8.0 ('River Man') 32bit built on Mar 27 2015 16:18:02
_STATISTICS_WRITING_DATE_UTC : 2016-05-30 21:43:33
_STATISTICS_TAGS : BPS DURATION NUMBER_OF_FRAMES NUMBER_OF_BYTES
Menu
00:00:00.000 : :1
00:03:32.170 : :2
00:08:14.160 : :3
00:12:05.683 : :4
00:17:53.571 : :5
00:21:30.080 : :6
00:26:18.576 : :7
00:31:40.564 : :8
00:37:10.352 : :9
00:41:45.960 : :10
00:47:11.327 : :11
00:50:18.347 : :12
00:53:38.588 : :13
00:56:56.577 : :14
01:02:21.902 : :15
01:08:15.880 : :16
01:11:41.293 : :17
01:17:04.783 : :18
01:19:59.582 : :19
01:23:22.451 : :20
01:27:43.587 : :21
01:31:39.114 : :22
01:36:52.051 : :23
01:40:37.401 : :24
0 человек читают эту тему: 0 пользователей, 0 скрытых пользователей, 0 гостей

Показать сообщения:    

Текущее время: 22-Авг 19:49

Часовой пояс: UTC - 1


Вы не можете начинать темы
Вы не можете отвечать на сообщения
Вы не можете редактировать свои сообщения
Вы не можете удалять свои сообщения
Вы не можете голосовать в опросах
Вы не можете прикреплять файлы к сообщениям
Вы не можете скачивать файлы

!ВНИМАНИЕ!
Сайт не предоставляет электронные версии произведений, а занимается лишь коллекционированием и каталогизацией ссылок, присылаемых и публикуемых на форуме нашими читателями. Если вы являетесь правообладателем какого-либо представленного материала и не желаете, чтобы ссылка на него находилась в нашем каталоге, свяжитесь с нами, и мы незамедлительно удалим ее. Файлы для обмена на трекере предоставлены пользователями сайта, и администрация не несет ответственности за их содержание. Просьба не заливать файлы, защищенные авторскими правами, а также файлы нелегального содержания!