Важное объявление!
У Нас Все раздачи мультитрекерные, при нуле пиров в релизах, можете смело вставать на закачку!
 
Автор Сообщение

HUNTER

Стаж:
4 года 8 месяцев
Сообщений:
62044

Репутация: 101

[+] [-]
Вне форума [Профиль] [ЛС]

Эврика 7: Океан Астрала / Eureka Seven Ao
Страна: Япония
Год выпуска: 2012 г.
Жанр: приключения, фантастика, меха
Тип: TV
Продолжительность: 24 эп. ~25 мин. серия
Режиссер: Кёда Томоки
Студия: Bones
Озвучивание: NIKITOS
Работа над таймингом и звуком: NIKITOS | Gigantic Guyver (04-xx)
Перевод: 01-02 [Another-subs] Перевод: ash, Оформление: BeMoN, Редактура: Feanor | 03-xx zafhos & Reaper
Описание:
История разворачивается на изолированном острове Ивадо, расположенном недалеко от Окинавы, где растет массовое движение по возврату автономного правительства. На острове проживает старый доктор Тошио вместе с 13-летним парнишкой по имени Ао Фукаи, потерявший своего отца. Мать Ао была похищена неизвестными около 10 лет назад. Так же недалеко проживает Нару Арата – Давняя подруга детства Ао и по совместительству героиня истории, живущая со своим отцом, сестрой и бабушкой. Она обладает мистической силой “Юта”, пробудившейся во время несчастного случая в далеком детстве. Вскоре в пределах острова появляется таинственная организация под названием “Secret” и тут же начинает атаковать, расположенные там залежи Скаб Корала. Стараясь во что бы то ни стало защитить родной остров, Ао пробирается на борт японского военного транспортника и запускает там ЛФО, более известный, как Нирваш.
© Shadow909, World Art
Качество: HDTVRip
Тип релиза: Без хардсаба
Формат видео: MP4
Наличие линковки: Нет
Видео: x264, 1280x720, 1500 kbps, 23,976 fps
Аудио: AAC, 192kbps, 48 kHz, 2 ch Язык Русский (в составе контейнера) ; Озвучка: одноголосый, SHIZA Project
Аудио 2: AAC, 192kbps, 48 kHz, 2 ch Язык Японский ; оригинальная

СЭМПЛ

Подробные тех. данные

GeneralComplete name : E:\torr\anime\[SHIZA Project] Eureka Seven AO TV2 [NIKITOS] [HDTVRip]\[SHIZA Project] Eureka Seven AO TV2 [01 of 24] [Rus Jap] [1280x720 x264] [NIKITOS].mp4Format : MPEG-4Format profile : Base MediaCodec ID : isomFile size : 334 MiBDuration : 24mn 26sOverall bit rate mode : VariableOverall bit rate : 1 908 KbpsEncoded date : UTC 2012-04-12 17:41:18Tagged date : UTC 2012-04-12 17:41:18Writing application : Yamb 2.1.0.0 []http://yamb.unite-video.com]
VideoID : 1Format : AVCFormat/Info : Advanced Video CodecFormat profile : High@L4.1Format settings, CABAC : YesFormat settings, ReFrames : 4 framesCodec ID : avc1Codec ID/Info : Advanced Video CodingDuration : 24mn 26sBit rate : 1 494 KbpsMaximum bit rate : 12.1 MbpsWidth : 1 280 pixelsHeight : 720 pixelsDisplay aspect ratio : 16:9Frame rate mode : ConstantFrame rate : 23.976 fpsColor space : YUVChroma subsampling : 4:2:0Bit depth : 8 bitsScan type : ProgressiveBits/(Pixel*Frame) : 0.068Stream size : 261 MiB (78%)Title : www.SHIZA-Project.comWriting library : x264 core 119 r2106 07efeb4Encoding settings : cabac=1 / ref=3 / deblock=1:0:0 / analyse=0x3:0x113 / me=hex / subme=7 / psy=1 / psy_rd=1.00:0.00 / mixed_ref=1 / me_range=16 / chroma_me=1 / trellis=1 / 8x8dct=1 / cqm=0 / deadzone=21,11 / fast_pskip=1 / chroma_qp_offset=-2 / threads=12 / sliced_threads=0 / nr=0 / decimate=1 / interlaced=0 / bluray_compat=0 / constrained_intra=0 / bframes=3 / b_pyramid=2 / b_adapt=1 / b_bias=0 / direct=1 / weightb=1 / open_gop=0 / weightp=2 / keyint=250 / keyint_min=23 / scenecut=40 / intra_refresh=0 / rc_lookahead=40 / rc=crf / mbtree=1 / crf=20.0 / qcomp=0.60 / qpmin=0 / qpmax=69 / qpstep=4 / ip_ratio=1.40 / aq=1:1.00Encoded date : UTC 2012-04-12 18:52:59Tagged date : UTC 2012-04-12 17:41:34
Audio #1ID : 2Format : AACFormat/Info : Advanced Audio CodecFormat profile : LCCodec ID : 40Duration : 24mn 26sBit rate mode : VariableBit rate : 192 KbpsMaximum bit rate : 238 KbpsChannel(s) : 2 channelsChannel positions : Front: L RSampling rate : 48.0 KHzCompression mode : LossyStream size : 33.6 MiB (10%)Title : NIKITOS from SHIZALanguage : RussianEncoded date : UTC 2012-04-12 17:41:27Tagged date : UTC 2012-04-12 17:41:34
Audio #2ID : 3Format : AACFormat/Info : Advanced Audio CodecFormat profile : LCCodec ID : 40Duration : 24mn 26sBit rate mode : VariableBit rate : 216 KbpsMaximum bit rate : 247 KbpsChannel(s) : 2 channelsChannel positions : Front: L RSampling rate : 48.0 KHzCompression mode : LossyStream size : 37.8 MiB (11%)Title : JAP OriginalLanguage : JapaneseEncoded date : UTC 2012-04-12 17:41:29Tagged date : UTC 2012-04-12 17:41:34

Список эпизодов

01. Рождение проворного
02. Пещера Ао
03. Секретная Операция
04. Коралловый Клинок
05. Поколение Блю
06. Зажги мой Огонь
07. Прощай, Ангел
08. Голубой Гром
09. Враг из Глубин
10. Крысолов из Гаммельна
11. Зеркало мира
12. Небо и земля
13. Корабль лунного света
14. Другая правда
15. Человекообразный "Скрытый"
16. Вторая фаза
17. Книга Йоханссона
18. Третий двигатель
19. День
20. Последнее сообщение
21. Восходящее Солнце
22. Хранители коралла
23. Последний рубеж
24. Врата в лето

Отличия

http://rutracker.org/forum/viewtopic.php?t=4022482 альтернативная озвучка
http://rutracker.org/forum/viewtopic.php?t=4021939 альтернативная озвучка, 8-битное видео

Скриншоты


_________________
Показать сообщения:    

Текущее время: Сегодня 23:41

Часовой пояс: GMT



Вы не можете начинать темы
Вы не можете отвечать на сообщения
Вы не можете редактировать свои сообщения
Вы не можете удалять свои сообщения
Вы не можете голосовать в опросах
Вы не можете прикреплять файлы к сообщениям
Вы не можете скачивать файлы
Наши партнеры: интернет магазин Ивановского трикотажа textilla.ru