Важное объявление!
У Нас Все раздачи мультитрекерные, при нуле пиров в релизах, можете смело вставать на закачку!
 
Автор Сообщение

HUNTER

Стаж:
4 года 5 месяцев
Сообщений:
60874

Репутация: 101

[+] [-]
Вне форума [Профиль] [ЛС]

Эволюция Борна / The Bourne Legacy / Open Matte
Страна: США
Жанр: боевик, триллер, детектив, приключения
Год выпуска: 2012
Продолжительность: 02:15:02
Перевод: Профессиональный (дублированный) Blu-ray CEE
Перевод 2: Авторский (одноголосый закадровый) Володарский
Перевод 3: Авторский (одноголосый закадровый) Живов
Cубтитры: Russian [Forced, Full], English (full, SDH, SDH COLORED)
Оригинальная аудиодорожка: английский
Режиссер: Тони Гилрой / Tony Gilroy
В ролях: Джереми Реннер, Рейчел Вайс, Эдвард Нортон, Джоан Аллен, Альберт Финни, Скотт Гленн, Стейси Кич, Донна Мерфи, Майкл Чернус, Кори Столл
Описание: История Джейсона Борна, бывшего наемным убийцей ЦРУ, отнюдь не закончилась. Ведь он слишком много знает, а таких людей не оставляют в покое даже после много лет после их ухода от активной деятельности. Однако, на этот раз речь пойдет об одном из совершенно секретных проектов, лишь косвенно связанных с ним. Главным действующим лицом на этот раз будет другой секретный агент по имени Аарон Кросс. Ему также предстоит скрываться от тех, кто пытается замести следы своих прошлых дел. И это будет совсем непросто, несмотря даже на его необычайные способности...
Доп. информация: К видео с HDTV добавлены аудиодорожки и субтитры с BD. Дорожки полные - продолжительность дана по ним. Видеоряд короче за счет урезанных финальных титров. Из видеоряда удалены все послерекламные вставки. HDTV имеет большее наполнение кадра, чем BD http://screenshotcomparison.com/comparison/91611
Сэмпл: http://multi-up.com/1079405
Тип релиза: HDTV 1080i
Контейнер: MKV
Видео: AVC, 1920x1080 (16:9), 23.976 fps, 11.4 Mbps (0.114 bit/pixel)
Аудио: DTS, 48.0 KHz, 6 ch, 755 Kbps, CBR (Russian) - dub
Аудио 2: AC-3, 48.0 KHz, 6 ch, 448 Kbps, CBR (Russian) - Володарский
Аудио 3: AC-3, 48.0 KHz, 6 ch, 448 Kbps, CBR (Russian) - Живов
Аудио 4: DTS, 48.0 KHz, 6 ch, 1 510 Kbps, CBR (English)
Формат субтитров: softsub (SRT)

MediaInfo

Общее
Уникальный идентификатор : 236268519056359925698106214734016235526 (0xB1BFA95D16A47EDDB1B21937F8BB4806)
Полное имя : N:\МОИ РАЗДАЧИ\Эволюция Борна.mkv
Формат : Matroska
Версия формата : Version 2
Размер файла : 14,0 Гбайт
Продолжительность : 2 ч. 15 м.
Общий поток : 14,8 Мбит/сек
Дата кодирования : UTC 2015-12-14 09:14:33
Программа кодирования : mkvmerge v8.2.0 ('World of Adventure') 64bit
Библиотека кодирования : libebml v1.3.1 + libmatroska v1.4.2
Видео
Идентификатор : 1
Формат : AVC
Формат/Информация : Advanced Video Codec
Профиль формата : Main@L4
Параметр CABAC формата : Да
Параметр ReFrames формата : 3 кадра
Параметр GOP формата : M=4, N=28
Идентификатор кодека : V_MPEG4/ISO/AVC
Битрейт : 11,4 Мбит/сек
Ширина : 1920 пикселей
Высота : 1080 пикселей
Соотношение сторон : 16:9
Режим частоты кадров : Переменный
Частота кадров в оригинале : 23,976 кадра/сек
Стандарт вещания : Component
Цветовое пространство : YUV
Субдискретизация насыщенности : 4:2:0
Битовая глубина : 8 бит
Тип развёртки : Чересстрочная
Порядок развёртки : Верхнее поле первое
Заголовок : Эволюция Борна / The Bourne Legacy (2012)
Язык : English
Default : Да
Forced : Нет
Цветовой диапазон : Limited
Основные цвета : BT.709
Характеристики трансфера : BT.709
Коэффициенты матрицы : BT.709
Аудио #1
Идентификатор : 2
Формат : DTS
Формат/Информация : Digital Theater Systems
Режим : 16
Параметр Endianness формата : Big
Идентификатор кодека : A_DTS
Продолжительность : 2 ч. 15 м.
Вид битрейта : Постоянный
Битрейт : 768 Кбит/сек
Каналы : 6 каналов
Расположение каналов : Front: L C R, Side: L R, LFE
Частота : 48,0 КГц
Битовая глубина : 24 бит
Метод сжатия : С потерями
Размер потока : 742 Мбайт (5%)
Заголовок : Профессиональный (полное дублирование) BD CEE
Язык : Russian
Default : Да
Forced : Нет
Аудио #2
Идентификатор : 3
Формат : AC-3
Формат/Информация : Audio Coding 3
Расширение режима : CM (complete main)
Параметр Endianness формата : Big
Идентификатор кодека : A_AC3
Продолжительность : 2 ч. 15 м.
Вид битрейта : Постоянный
Битрейт : 448 Кбит/сек
Каналы : 6 каналов
Расположение каналов : Front: L C R, Side: L R, LFE
Частота : 48,0 КГц
Метод сжатия : С потерями
Задержка видео : 24 мс.
Размер потока : 433 Мбайт (3%)
Заголовок : Авторский (одноголосый закадровый) Володарский
Язык : Russian
Default : Нет
Forced : Нет
Аудио #3
Идентификатор : 4
Формат : AC-3
Формат/Информация : Audio Coding 3
Расширение режима : CM (complete main)
Параметр Endianness формата : Big
Идентификатор кодека : A_AC3
Продолжительность : 2 ч. 15 м.
Вид битрейта : Постоянный
Битрейт : 448 Кбит/сек
Каналы : 6 каналов
Расположение каналов : Front: L C R, Side: L R, LFE
Частота : 48,0 КГц
Метод сжатия : С потерями
Задержка видео : 24 мс.
Размер потока : 433 Мбайт (3%)
Заголовок : Авторский (одноголосый закадровый) Живов
Язык : Russian
Default : Нет
Forced : Нет
Аудио #4
Идентификатор : 5
Формат : DTS
Формат/Информация : Digital Theater Systems
Режим : 16
Параметр Endianness формата : Big
Идентификатор кодека : A_DTS
Продолжительность : 2 ч. 15 м.
Вид битрейта : Постоянный
Битрейт : 1509 Кбит/сек
Каналы : 6 каналов
Расположение каналов : Front: L C R, Side: L R, LFE
Частота : 48,0 КГц
Битовая глубина : 24 бит
Метод сжатия : С потерями
Размер потока : 1,42 Гбайт (10%)
Заголовок : Английский
Язык : English
Default : Нет
Forced : Нет
Текст #1
Идентификатор : 6
Формат : UTF-8
Идентификатор кодека : S_TEXT/UTF8
Идентификатор кодека/Информация : UTF-8 Plain Text
Заголовок : Русские (полные)
Язык : Russian
Default : Нет
Forced : Нет
Текст #2
Идентификатор : 7
Формат : UTF-8
Идентификатор кодека : S_TEXT/UTF8
Идентификатор кодека/Информация : UTF-8 Plain Text
Заголовок : Русские (форсированные)
Язык : Russian
Default : Нет
Forced : Нет
Текст #3
Идентификатор : 8
Формат : UTF-8
Идентификатор кодека : S_TEXT/UTF8
Идентификатор кодека/Информация : UTF-8 Plain Text
Заголовок : Английские (полные)
Язык : English
Default : Нет
Forced : Нет
Текст #4
Идентификатор : 9
Формат : UTF-8
Идентификатор кодека : S_TEXT/UTF8
Идентификатор кодека/Информация : UTF-8 Plain Text
Заголовок : Английские (SDH)
Язык : English
Default : Нет
Forced : Нет
Текст #5
Идентификатор : 10
Формат : UTF-8
Идентификатор кодека : S_TEXT/UTF8
Идентификатор кодека/Информация : UTF-8 Plain Text
Заголовок : Английские (SDH Colored)
Язык : English
Default : Нет
Forced : Нет

Скриншоты



_________________
Показать сообщения:    

Текущее время: Сегодня 08:52

Часовой пояс: GMT



Вы не можете начинать темы
Вы не можете отвечать на сообщения
Вы не можете редактировать свои сообщения
Вы не можете удалять свои сообщения
Вы не можете голосовать в опросах
Вы не можете прикреплять файлы к сообщениям
Вы не можете скачивать файлы
Наши партнеры: интернет магазин Ивановского трикотажа textilla.ru