Ивановский Торрент трекер
Яндекс.Погода
 

[Цитировать]
Shalun

-Эволюция Борна / The Bourne Legacy-Информация о фильме
Название: Эволюция Борна
Оригинальное название: The Bourne Legacy
Год выхода: 2012
Жанр: боевик, триллер, детектив, приключения
Режиссер: Тони Гилрой
В ролях: Джоан Аллен, Мари-Пьер Босежур, Майкл Беррессе, Майкл Чернас, Том Риис Фэррелл, Джон Фаррер, Альберт Финни, Скотт Гленн, Оскар Айзек, Стэйси Кич, Кристофер Манн, Эдвард Нортон, Майкл Пападжон, Джереми Реннер, Кори Столл, Нилайя Сан, Рэйчел Вайз
О фильме: Действие разворачивается параллельно событиям фильма Ультиматум Борна. Выясняется, что одновременно с проектом «Блэкбрайар» разрабатывался проект Разведывательного управления министерства обороны США «Аутком», который отличался от проекта ЦРУ «Тредстоун» тем, что агентам давали специальные таблетки-стимуляторы (синие - для мозга, зелёные - для мышц).
Минус заключался в том, что эти пилюли нужно было принимать регулярно, в противном случае агент начинал физически и умственно деградировать и в итоге умирал. Одним из агентов был юноша Кеннет Джеймс Китсом, который официально считается погибшим на войне. После успешной подготовки он получает новое имя «Аарон Кросс» и становится пятым полевым агентом...

Страна: США
Продолжительность: 02:15:02
Перевод: Дублированный
Файл
Кодек: h.264
Качество: BDRip-AVC
Видео: 1024x428 (2,40:1), 23.976 fps, 1152 kbps, 0.110 bit/pixel
Звук: 48 kHz, AC3 5.1, 384.00 kbps
Субтитры: Русские, Английские (отключаемые)
Сэмпл

MediaInfo

Общее
Уникальный идентификатор : 244200939559702781419470589152442407893 (0xB7B763E3CA4BD5C7B8FF68F13F475BD5)
Полное имя : D:The Bourne Legacy.2012.BDRip-AVC.mkv
Формат : Matroska
Версия формата : Version 4 / Version 2
Размер файла : 1,45 Гбайт
Продолжительность : 2 ч. 15 м.
Общий поток : 1535 Кбит/сек
Название фильма : Эволюция Борна / The Bourne Legacy (2012) BDRip-AVC rip by Rulya74
Дата кодирования : UTC 2010-02-22 21:41:31
Программа кодирования : mkvmerge v5.9.0 ('On The Loose') built on Dec 9 2012 15:37:01
Библиотека кодирования : libebml v1.3.0 + libmatroska v1.4.0
Видео
Идентификатор : 1
Формат : AVC
Формат/Информация : Advanced Video Codec
Профиль формата : High@L4.1
Параметр CABAC формата : Да
Параметр ReFrames формата : 13 кадров
Идентификатор кодека : V_MPEG4/ISO/AVC
Продолжительность : 2 ч. 15 м.
Битрейт : 1152 Кбит/сек
Ширина : 1024 пикселя
Высота : 428 пикселей
Соотношение сторон : 2,40:1
Частота кадров : 23,976 кадра/сек
Цветовое пространство : YUV
Субдискретизация насыщенности : 4:2:0
Битовая глубина : 8 бит
Тип развёртки : Прогрессивная
Бит/(Пиксели*Кадры) : 0.110
Размер потока : 1,06 Гбайт (73%)
Библиотека кодирования : x264 core 129 r2230 1cffe9f
Настройки программы : cabac=1 / ref=13 / deblock=1:-3:-2 / analyse=0x3:0x133 / me=umh / subme=10 / psy=1 / psy_rd=1.08:0.04 / mixed_ref=1 / me_range=48 / chroma_me=1 / trellis=2 / 8x8dct=1 / cqm=0 / deadzone=21,11 / fast_pskip=0 / chroma_qp_offset=-3 / threads=2 / lookahead_threads=1 / sliced_threads=0 / nr=0 / decimate=1 / interlaced=0 / bluray_compat=0 / constrained_intra=0 / bframes=8 / b_pyramid=2 / b_adapt=2 / b_bias=0 / direct=3 / weightb=1 / open_gop=0 / weightp=2 / keyint=240 / keyint_min=23 / scenecut=40 / intra_refresh=0 / rc_lookahead=40 / rc=2pass / mbtree=1 / bitrate=1152 / ratetol=1.0 / qcomp=0.60 / qpmin=10 / qpmax=51 / qpstep=4 / cplxblur=20.0 / qblur=0.5 / ip_ratio=1.40 / aq=2:1.00
Default : Да
Forced : Нет
Аудио
Идентификатор : 2
Формат : AC-3
Формат/Информация : Audio Coding 3
Расширение режима : CM (complete main)
Идентификатор кодека : A_AC3
Продолжительность : 2 ч. 15 м.
Вид битрейта : Постоянный
Битрейт : 384 Кбит/сек
Каналы : 6 каналов
Расположение каналов : Front: L C R, Side: L R, LFE
Частота : 48,0 КГц
Битовая глубина : 16 бит
Метод сжатия : С потерями
Размер потока : 371 Мбайт (25%)
Заголовок : Дублированный
Язык : Russian
Default : Да
Forced : Нет
Текст #1
Идентификатор : 3
Формат : UTF-8
Идентификатор кодека : S_TEXT/UTF8
Идентификатор кодека/Информация : UTF-8 Plain Text
Заголовок : Full
Язык : Russian
Default : Нет
Forced : Нет
Текст #2
Идентификатор : 4
Формат : UTF-8
Идентификатор кодека : S_TEXT/UTF8
Идентификатор кодека/Информация : UTF-8 Plain Text
Заголовок : Full
Язык : English
Default : Нет
Forced : Нет
Меню
00:00:00.000 : en:00:00:00.000
00:08:43.690 : en:00:08:43.690
00:14:26.616 : en:00:14:26.616
00:19:57.488 : en:00:19:57.488
00:27:53.297 : en:00:27:53.297
00:34:18.265 : en:00:34:18.265
00:42:52.403 : en:00:42:52.403
00:47:57.374 : en:00:47:57.374
00:53:56.066 : en:00:53:56.066
01:00:29.167 : en:01:00:29.167
01:07:36.636 : en:01:07:36.636
01:14:36.972 : en:01:14:36.972
01:22:39.204 : en:01:22:39.204
01:28:37.687 : en:01:28:37.687
01:36:39.043 : en:01:36:39.043
01:41:05.685 : en:01:41:05.685
01:45:07.968 : en:01:45:07.968
01:52:15.520 : en:01:52:15.520
02:00:07.283 : en:02:00:07.283
02:05:06.416 : en:02:05:06.416

Скриншоты




Показать сообщения:    

Текущее время: 18-Дек 03:25

Часовой пояс: UTC ± 0


Вы не можете начинать темы
Вы не можете отвечать на сообщения
Вы не можете редактировать свои сообщения
Вы не можете удалять свои сообщения
Вы не можете голосовать в опросах
Вы не можете прикреплять файлы к сообщениям
Вы не можете скачивать файлы

!ВНИМАНИЕ!
Сайт не предоставляет электронные версии произведений, а занимается лишь коллекционированием и каталогизацией ссылок, присылаемых и публикуемых на форуме нашими читателями. Если вы являетесь правообладателем какого-либо представленного материала и не желаете, чтобы ссылка на него находилась в нашем каталоге, свяжитесь с нами, и мы незамедлительно удалим ее. Файлы для обмена на трекере предоставлены пользователями сайта, и администрация не несет ответственности за их содержание. Просьба не заливать файлы, защищенные авторскими правами, а также файлы нелегального содержания!