Важное объявление!
У Нас Все раздачи мультитрекерные, при нуле пиров в релизах, можете смело вставать на закачку!
Статистика раздачи
Размер:     |    Зарегистрирован:     |    Скачан:     |   
Нет
 
     
 
 
Автор Сообщение

сеня

Стаж:
5 лет
Сообщений:
39

Репутация: 1

[+] [-]
Вне форума [Профиль] [ЛС]

Эволюция Борна / The Bourne Legacy
[font=georgia]
Название: Эволюция Борна
Оригинальное название: The Bourne Legacy
Год выхода: 2012
Жанр: боевик, триллер, детектив, приключения
Режиссер: Тони Гилрой- -В ролях:
Джереми Реннер, Рейчел Вайс, Эдвард Нортон, Джоан Аллен, Альберт Финни, Скотт Гленн, Стейси Кич, Донна Мерфи, Майкл Чернус, Кори Столл
Описание:
В игре всегда несколько фигур. Одна из них - Джейсон Борн, другая - совершенный агент Аарон Кросс. Их возможности безграничны. Но даже у идеального оружия бывают сбои..-Страна: США
Продолжительность: 02:15:02
Перевод: Дубляж (Профессиональный[BD EUR]) + Оригинал (Английский)
Субтитры: Русские/Английские UTF-8 (full)
Релиз группа: | by AVT83-Качество: BDRip 720p |The Bourne Legacy 2012 1080p Blu-Ray AVC DTS-HD MA 7.1-HDChina
Формат: MKV
Видео кодек: H.264
Видео: 1280x536/2.40:1/23.976 fps/6 423 Kbps/0.390 Bits/(Pixel*Frame)
Аудио (Русский): 48 kHz, AC3 Dolby Digital, 3/2 (L,C,R,l,r) + LFE ch, ~ 448 kbps avg | ( Дубляж)
Аудио (Английский): 48 kHz, AC3 Dolby Digital, 3/2 (L,C,R,l,r) + LFE ch, ~ 448 kbps avg | (Оригинал)
-

log x264 / MI

avs [info]: 1280x536p 1:1 @ 2500000/104271 fps (cfr)
x264 [info]: using SAR=1/1
x264 [info]: using cpu capabilities: MMX2 SSE2Fast SSSE3 FastShuffle SSE4.2
x264 [info]: profile High, level 4.1
x264 [info]: frame I:1382 Avg QP:16.05 size:133201
x264 [info]: frame P:45187 Avg QP:18.74 size: 56028
x264 [info]: frame B:147692 Avg QP:20.49 size: 25621
x264 [info]: consecutive B-frames: 3.8% 4.2% 11.3% 11.9% 13.4% 42.3% 4.3% 2.6% 3.8% 1.4% 0.9%
x264 [info]: mb I I16..4: 26.0% 56.0% 18.1%
x264 [info]: mb P I16..4: 2.3% 32.2% 2.0% P16..4: 29.8% 21.5% 10.4% 0.0% 0.0% skip: 1.7%
x264 [info]: mb B I16..4: 0.2% 4.7% 0.2% B16..8: 42.7% 15.1% 4.6% direct: 9.6% skip:23.0% L0:47.3% L1:44.5% BI: 8.2%
x264 [info]: 8x8 transform intra:87.7% inter:65.3%
x264 [info]: direct mvs spatial:99.1% temporal:0.9%
x264 [info]: coded y,uvDC,uvAC intra: 95.1% 95.2% 86.1% inter: 43.5% 44.1% 23.3%
x264 [info]: i16 v,h,dc,p: 24% 11% 29% 36%
x264 [info]: i8 v,h,dc,ddl,ddr,vr,hd,vl,hu: 10% 8% 12% 10% 13% 12% 12% 11% 12%
x264 [info]: i4 v,h,dc,ddl,ddr,vr,hd,vl,hu: 12% 9% 4% 9% 15% 14% 14% 11% 13%
x264 [info]: i8c dc,h,v,p: 56% 14% 12% 18%
x264 [info]: Weighted P-Frames: Y:17.4% UV:10.2%
x264 [info]: ref P L0: 40.4% 8.6% 20.2% 7.6% 6.3% 4.0% 3.9% 2.0% 2.1% 1.5% 1.6% 1.3% 0.4% 0.1%
x264 [info]: ref B L0: 64.0% 14.4% 7.4% 4.1% 2.8% 2.4% 1.8% 1.2% 1.0% 0.6% 0.2%
x264 [info]: ref B L1: 90.4% 9.6%
x264 [info]: kb/s:6417.82
x264 [total]: encoded 194261 frames, 3.24 fps, 6417.82 kb/s
--------------------------------------------------------------------------------
Format : Matroska
Format version : Version 2
File size : 6.90 GiB
Duration : 2h 15mn
Overall bit rate : 7 316 Kbps
Movie name : avt83@DHT-Movies
Encoded date : UTC 2012-12-07 07:54:34
Writing application : mkvmerge v4.0.0 ('The Stars were mine') built on Jun 6 2010 16:18:42
Writing library : libebml v1.0.0 + libmatroska v1.0.0
Video
ID : 1
Format : AVC
Format/Info : Advanced Video Codec
Format profile : High@L4.1
Format settings, CABAC : Yes
Format settings, ReFrames : 12 frames
Codec ID : V_MPEG4/ISO/AVC
Duration : 2h 15mn
Bit rate : 6 423 Kbps
Width : 1 280 pixels
Height : 536 pixels
Display aspect ratio : 2.40:1
Frame rate : 23.976 fps
Color space : YUV
Chroma subsampling : 4:2:0
Bit depth : 8 bits
Scan type : Progressive
Bits/(Pixel*Frame) : 0.390
Stream size : 5.92 GiB (86%)
Writing library : x264 core 119 r2106 07efeb4
Encoding settings : cabac=1 / ref=12 / deblock=1:-2:-1 / analyse=0x3:0x113 / me=umh / subme=10 / psy=1 / psy_rd=1.03:0.10 / mixed_ref=1 / me_range=32 / chroma_me=1 / trellis=2 / 8x8dct=1 / cqm=0 / deadzone=21,11 / fast_pskip=0 / chroma_qp_offset=-3 / threads=6 / sliced_threads=0 / nr=0 / decimate=0 / interlaced=0 / bluray_compat=0 / constrained_intra=0 / bframes=10 / b_pyramid=2 / b_adapt=2 / b_bias=0 / direct=3 / weightb=1 / open_gop=0 / weightp=2 / keyint=250 / keyint_min=24 / scenecut=40 / intra_refresh=0 / rc=2pass / mbtree=0 / bitrate=6423 / ratetol=1.0 / qcomp=0.70 / qpmin=0 / qpmax=69 / qpstep=4 / cplxblur=20.0 / qblur=0.5 / ip_ratio=1.40 / pb_ratio=1.30 / aq=1:1.00
Language : English
Default : No
Forced : No
Audio #1
ID : 2
Format : AC-3
Format/Info : Audio Coding 3
Mode extension : CM (complete main)
Format settings, Endianness : Big
Codec ID : A_AC3
Duration : 2h 15mn
Bit rate mode : Constant
Bit rate : 448 Kbps
Channel(s) : 6 channels
Channel positions : Front: L C R, Side: L R, LFE
Sampling rate : 48.0 KHz
Bit depth : 16 bits
Compression mode : Lossy
Stream size : 433 MiB (6%)
Title : Дубляж BD EUR
Language : Russian
Default : Yes
Forced : No
Audio #2
ID : 3
Format : AC-3
Format/Info : Audio Coding 3
Mode extension : CM (complete main)
Format settings, Endianness : Big
Codec ID : A_AC3
Duration : 2h 15mn
Bit rate mode : Constant
Bit rate : 448 Kbps
Channel(s) : 6 channels
Channel positions : Front: L C R, Side: L R, LFE
Sampling rate : 48.0 KHz
Bit depth : 16 bits
Compression mode : Lossy
Stream size : 433 MiB (6%)
Title : Оригинал
Language : English
Default : No
Forced : No
Text #1
ID : 4
Format : UTF-8
Codec ID : S_TEXT/UTF8
Codec ID/Info : UTF-8 Plain Text
Title : full
Language : Russian
Default : Yes
Forced : No
Text #2
ID : 5
Format : UTF-8
Codec ID : S_TEXT/UTF8
Codec ID/Info : UTF-8 Plain Text
Title : forsed
Language : Russian
Default : No
Forced : No
Text #3
ID : 6
Format : UTF-8
Codec ID : S_TEXT/UTF8
Codec ID/Info : UTF-8 Plain Text
Title : full
Language : English
Default : No
Forced : No


-------------------------------------------------------------------
Показать сообщения:    

Текущее время: Сегодня 06:32

Часовой пояс: GMT



Вы не можете начинать темы
Вы не можете отвечать на сообщения
Вы не можете редактировать свои сообщения
Вы не можете удалять свои сообщения
Вы не можете голосовать в опросах
Вы не можете прикреплять файлы к сообщениям
Вы не можете скачивать файлы