Важное объявление!
У Нас Все раздачи мультитрекерные, при нуле пиров в релизах, можете смело вставать на закачку!
 
Автор Сообщение

HUNTER

Стаж:
4 года 8 месяцев
Сообщений:
62020

Репутация: 101

[+] [-]
Вне форума [Профиль] [ЛС]

Щелкунчик / The Nutcracker
Страна: США, Япония
Жанр: Cемейный, сказка
Продолжительность: 00:46:18
Год выпуска: 1995
Перевод: Профессиональный (многоголосый закадровый) - Варус Видео
Русские субтитры: нет
Режиссёр: Тошиюки Хирума, Такаши / Toshiyuki Hiruma, Takashi-Описание: В праздничный Рождественский вечер все семейство Стельбаум занято разворачиванием рождественских подарков. Вместе с другими подарками, семилетняя Мэри получает очень странный подарок от своего обожаемого крестного Дроссельмейера, который совсем не похож на остальные. Это деревянная игрушка - щелкунчик.
На самом деле Щелкунчик - это племянник Дроссельмейера, которого прокляла злая Мадам Мышь. Чтобы развеять колдовские чары, Щелкунчик должен завоевать любовь Мэри и победить ужасного семиголового Мышиного короля.
-Доп. материалы: отсутствуют
Качество: DVD5 (Custom)
Формат: DVD-video
Видео: MPEG-2 PAL, 720x576, 25fps, ~8500 Kb/s
Аудио 1: AC3, 48khz, 2ch, 192 kb/s, Русский
Аудио 2: AC3, 48khz, 2ch, 192 kb/s, Deutsch
Субтитры: отсутствуют
Релиз:

DVDInfo

Title: The Nutcracker 1995 DVD5Size: 2.97 Gb ( 3 110 496,00 KBytes ) - DVD-5Enabled regions: 1, 2, 3, 4, 5, 6, 7, 8
VTS_01 : Play Length: 00:00:51 Video: PAL 4:3 (720x576) VBR Audio: Deutsch (Dolby AC3, 2 ch)
VTS_02 : Play Length: 00:46:18 Video: PAL 4:3 (720x576) VBR Audio: Russian (Dolby AC3, 2 ch) Deutsch (Dolby AC3, 2 ch)
* Menus Information *
VIDEO_TS MenuVideo: NTSC 4:3 (720x480) VBR Auto Pan&Scan, Auto LetterboxedEnglish Language Unit : Title Menu
VTS_01 MenuVideo: PAL 4:3 (720x576) VBREnglish Language Unit : Root Menu
VTS_02 MenuVideo: PAL 4:3 (720x576) VBREnglish Language Unit : Root Menu

MediaInfo

ОбщееПолное имя : E:\MULTFILMS\The Nutcracker 1995 DVD5\VIDEO_TS\VTS_02_1.VOBФормат : MPEG-PSРазмер файла : 1024 МбайтПродолжительность : 15 м.Режим общего битрейта : ПеременныйОбщий поток : 9034 Кбит/сек
ВидеоИдентификатор : 224 (0xE0)Формат : MPEG VideoВерсия формата : Version 2Профиль формата : Main@MainПараметр BVOP формата : ДаПараметр матрицы формата : По умолчаниюПараметр GOP формата : M=2, N=13Продолжительность : 15 м.Вид битрейта : ПеременныйБитрейт : 8500 Кбит/секШирина : 720 пикселейВысота : 576 пикселейСоотношение сторон : 4:3Частота кадров : 25,000 кадров/секСтандарт вещания : PALЦветовое пространство : YUVСубдискретизация насыщенности : 4:2:0Битовая глубина : 8 битТип развёртки : ЧересстрочнаяПорядок развёртки : Верхнее поле первоеМетод сжатия : С потерямиБит/(Пиксели*Кадры) : 0.820Временной код первого кадра : 09:59:59:00Оригинал временного кода : Group of pictures headerРазмер потока : 960 Мбайт (94%)Основные цвета : BT.601 PALХарактеристики трансфера : BT.470 System B, BT.470 System GКоэффициенты матрицы : BT.601
Аудио #1Идентификатор : 189 (0xBD)-128 (0x80)Формат : AC-3Формат/Информация : Audio Coding 3Расширение режима : CM (complete main)Параметр Endianness формата : BigРежим смешивания : DVD-VideoПродолжительность : 15 м.Вид битрейта : ПостоянныйБитрейт : 192 Кбит/секКаналы : 2 каналаРасположение каналов : Front: L RЧастота : 48,0 КГцБитовая глубина : 16 битМетод сжатия : С потерямиРазмер потока : 21,8 Мбайт (2%)
Аудио #2Идентификатор : 189 (0xBD)-129 (0x81)Формат : AC-3Формат/Информация : Audio Coding 3Расширение режима : CM (complete main)Параметр Endianness формата : BigРежим смешивания : DVD-VideoПродолжительность : 15 м.Вид битрейта : ПостоянныйБитрейт : 192 Кбит/секКаналы : 2 каналаРасположение каналов : Front: L RЧастота : 48,0 КГцБитовая глубина : 16 битМетод сжатия : С потерямиРазмер потока : 21,8 Мбайт (2%)

Скриншоты меню

Скриншоты


Информация по сборке

Диск собран из немецкого DVD. Русская аудиодорожка из этой раздачи - играет по умолчанию. Немецкая аудиодорожка оставлена второй, выбирается с пульта.
Используемый софт:
PgcDemux (Разборка диска)
BeSweet (Распаковка звука в формат WAV)
Adobe Audition (Синхронизация аудио)
Minnetonka Audio (Конвертация звука в формат Dolby AC3)
MuxMan (Сборка диска)
DVD Remake Pro (Реавторинг DVD)

_________________
Показать сообщения:    

Текущее время: Сегодня 10:08

Часовой пояс: GMT



Вы не можете начинать темы
Вы не можете отвечать на сообщения
Вы не можете редактировать свои сообщения
Вы не можете удалять свои сообщения
Вы не можете голосовать в опросах
Вы не можете прикреплять файлы к сообщениям
Вы не можете скачивать файлы
Наши партнеры: интернет магазин Ивановского трикотажа textilla.ru