Шэгги и Скуби-Ду ключ найдут! / Shaggy & Scooby-Doo: Get a Clue! (Джо Руби (Joe Ruby), Кен Спиарс (Ken Spears) Ивао Такамото (Iwao Takamoto)) (Сезон 2/Серии 5-8) [2006 г., Мультфильм., DVDRip] :: Ивановский Торрент трекер
Важное объявление!
У Нас Все раздачи мультитрекерные, при нуле пиров в релизах, можете смело вставать на закачку!
 
Автор Сообщение

HUNTER

Стаж:
4 года 11 месяцев
Сообщений:
66045

Репутация: 101

[+] [-]
Вне форума [Профиль] [ЛС]

Шэгги и Скуби-Ду ключ найдут!
Shaggy & Scooby-Doo: Get a Clue!
Сезон 2/Серии 5-8

-Год производства: 2006 г.
Страна: USA
Жанр: Мультфильм
Продолжительность: 01:27:09
Кол-во эпизодов: 4 из 4
Перевод: Профессиональный (полное дублирование)
Субтитры: Отсутствуют-Режиссер: Джо Руби (Joe Ruby), Кен Спиарс (Ken Spears), Ивао Такамото (Iwao Takamoto)-Описание: Второй том сериала. Доктор Финис Фибс запускает злой вирус, чтобы заразить национальную систему защиты, но его перехватывают Шэгги и Скуби-Ду в серии "Умный дом". "Молния ударяет дважды", когда Финис также замышляет ударить Землю электрошоком из космоса, но Скуби-Ду и Шэгги выдают себя за пришельцев, чтобы сорвать вечеринку. В серии "Не кормите животных" Финис замышляет навредить экологии, украв тропические леса. Чад Чаддингтон, самый великий в мире детектив, заявляет, что наши герои не достойны своей профессии, …если не смогут разгадать "Загадку исчезновения детективов"!-Качество видео: DVDRip
Формат видео: avi
Видео кодек: XviD
Аудио кодек: mp3
Видео: 720x544 (1.32:1), 25 fps, XviD MPEG-4 ~1132 kbps avg, 0.12 bit/pixel
Аудио: 48 kHz, MPEG Layer 3, 2 ch, ~192.00 kbps avg
Автор рипа: falco- -

Mediainfo

Код: copyText_writeLink('this.parentNode.parentNode.nextSibling.nextSibling');
General
Complete name : D:\Торенты\Шэгги и Скуби-Ду ключ найдут! Часть 1.AVI
Format : AVI
Format/Info : Audio Video Interleave
File size : 700 MiB
Duration : 1h 29mn
Overall bit rate : 1 099 Kbps
Video
ID : 0
Format : MPEG-4 Visual
Format profile : Advanced Simple@L5
Format settings, BVOP : 2
Format settings, QPel : No
Format settings, GMC : No warppoints
Format settings, Matrix : Default (H.263)
Muxing mode : Packed bitstream
Codec ID : XVID
Codec ID/Hint : XviD
Duration : 1h 29mn
Bit rate : 897 Kbps
Width : 720 pixels
Height : 544 pixels
Display aspect ratio : 4:3
Frame rate : 25.000 fps
Color space : YUV
Chroma subsampling : 4:2:0
Bit depth : 8 bits
Scan type : Progressive
Compression mode : Lossy
Bits/(Pixel*Frame) : 0.092
Stream size : 572 MiB (82%)
Title : DVD3VIDEO
Writing library : XviD 64
Audio
ID : 1
Format : MPEG Audio
Format version : Version 1
Format profile : Layer 3
Mode : Joint stereo
Mode extension : MS Stereo
Codec ID : 55
Codec ID/Hint : MP3
Duration : 1h 27mn
Bit rate mode : Constant
Bit rate : 192 Kbps
Channel(s) : 2 channels
Sampling rate : 48.0 KHz
Compression mode : Lossy
Stream size : 120 MiB (17%)
Alignment : Split accross interleaves
Interleave, duration : 24 ms (0.61 video frame)
Title : DVD3AUDIO00

Эпизоды


01. Умный дом
02. Молния ударяет дважды
03. Не кормите животных
04. Загадка исчезновения детективов

Скриншоты


_________________
Показать сообщения:    

Текущее время: Сегодня 22:38

Часовой пояс: GMT



Вы не можете начинать темы
Вы не можете отвечать на сообщения
Вы не можете редактировать свои сообщения
Вы не можете удалять свои сообщения
Вы не можете голосовать в опросах
Вы не можете прикреплять файлы к сообщениям
Вы не можете скачивать файлы