Ивановский Торрент трекер
Яндекс.Погода
 

[Цитировать]
димитри37

Шурочка
Сезон 1. Выпуски 1-20
Жанр: Скетч-шоу
Страна: Россия
Продолжительность: ~00:24:00 (выпуск)
Перевод: Не требуется
Русские субтитры: Нет
Источник: VaGON4eG (BigFANGroup)
Реклама: ~20 секунд в начале выпуска (заставка канала и информация о релизере)
Режиссеры: Максим Масальцев, Александр Курняев
В ролях: Наталья Медведева, Екатерина Долински, Ефим Банчик и др.
Описание: Такой героини Вы еще не видели! Мистер Бин в юбке, комик с миллионом лиц!
Шурочка - одинокая девушка с открытым и добрым сердцем. Из-за своей чрезмерной искренности она постоянно попадает в смешные и нелепые ситуации. Даже знакомясь с парнем, Шурочка умудряется довести кавалера до истерики, а зрителей до гомерического хохота. И всё это без тени пошлости и вульгарности, что для современного телевидения вообще большая редкость.
Качество: WEBRip
Формат: AVI
Видео: XviD, 720x400, 16:9, ~1700 kbps, 25.000 fps
Аудио: MP3, 128 kbps, 48 kHz, 2 ch

MediaInfoXP

GeneralComplete name : H:\Передачи и сериалы\Шурочка\Шурочка.01.HQWEBRip.aviFormat : AVIFormat/Info : Audio Video InterleaveFile size : 288 MiBDuration : 22mn 5sOverall bit rate : 1 825 KbpsWriting application : VirtualDubMod 1.5.10.2 (build 2542/release)Writing library : VirtualDubMod build 2542/release
VideoID : 0Format : MPEG-4 VisualFormat profile : Advanced Simple@L5Format settings, BVOP : 2Format settings, QPel : NoFormat settings, GMC : No warppointsFormat settings, Matrix : Default (H.263)Muxing mode : Packed bitstreamCodec ID : XVIDCodec ID/Hint : XviDDuration : 22mn 5sBit rate : 1 687 KbpsWidth : 720 pixelsHeight : 400 pixelsDisplay aspect ratio : 16:9Frame rate : 25.000 fpsColor space : YUVChroma subsampling : 4:2:0Bit depth : 8 bitsScan type : ProgressiveCompression mode : LossyBits/(Pixel*Frame) : 0.234Stream size : 267 MiB (92%)Writing library : XviD 64
AudioID : 1Format : MPEG AudioFormat version : Version 1Format profile : Layer 3Mode : Joint stereoMode extension : MS StereoCodec ID : 55Codec ID/Hint : MP3Duration : 22mn 5sBit rate mode : ConstantBit rate : 128 KbpsChannel count : 2 channelsSampling rate : 48.0 KHzCompression mode : LossyStream size : 20.2 MiB (7%)Alignment : Split accross interleavesInterleave, duration : 40 ms (1.00 video frame)Interleave, preload duration : 500 ms

Скриншоты




Показать сообщения:    

Текущее время: 17-Окт 07:02

Часовой пояс: UTC - 1


Вы не можете начинать темы
Вы не можете отвечать на сообщения
Вы не можете редактировать свои сообщения
Вы не можете удалять свои сообщения
Вы не можете голосовать в опросах
Вы не можете прикреплять файлы к сообщениям
Вы не можете скачивать файлы

!ВНИМАНИЕ!
Сайт не предоставляет электронные версии произведений, а занимается лишь коллекционированием и каталогизацией ссылок, присылаемых и публикуемых на форуме нашими читателями. Если вы являетесь правообладателем какого-либо представленного материала и не желаете, чтобы ссылка на него находилась в нашем каталоге, свяжитесь с нами, и мы незамедлительно удалим ее. Файлы для обмена на трекере предоставлены пользователями сайта, и администрация не несет ответственности за их содержание. Просьба не заливать файлы, защищенные авторскими правами, а также файлы нелегального содержания!