Шугарлендский экспресс / Sugarland express, The (Стивен Спилберг / Stiven Spielberg) [1974, США, драма, комедия, криминал, приключения, WEB-DL 720p] MVO + Sub Eng + Original Eng :: Ивановский Торрент трекер
Важное объявление!
У Нас Все раздачи мультитрекерные, при нуле пиров в релизах, можете смело вставать на закачку!
Статистика раздачи
Размер:     |    Зарегистрирован:     |    Скачан:     |   
Нет
 
     
 
 
Автор Сообщение

HUNTER

Стаж:
4 года 11 месяцев
Сообщений:
66077

Репутация: 101

[+] [-]
Вне форума [Профиль] [ЛС]

Шугарлендский экспресс / Sugarland express, The
КЛАССИКА МИРОВОГО КИНО
Страна: США
Студия: Universal Pictures & Zanuck/Brown Productions
Жанр: драма, комедия, криминал, приключения
Год выпуска: 1974
Продолжительность: 01:49:52
Перевод : Профессиональный (многоголосый закадровый)
Cубтитры: английские
Оригинальная аудиодорожка: английский
Режиссер: Стивен Спилберг / Stiven Spielberg
В ролях:Голди Хоун /Goldie Hawn/, Бен Джонсон /Ben Johnson/, Майкл Сэкс /Michael Sacks/, Уильям Этертон /William Atherton/, Грегори Уолкотт /Gregory Walcott/, Стив Кэнэли /Steve Kanaly/, Луиз Лэтэм /Louise Latham/, Харрисон Занук /Harrison Zanuck/, Джесси Ли Фултон /Jessie Lee Fulton/, Дин Смит /Dean Smith/, Тед Гроссман /Ted Grossman/, Билл Турман /Bill Thurman/, Кеннет Хаджинс /Kenneth Hudgins/, Бастер Дэниелс /Buster Daniels (в титрах: Buster Danials)/, Джеймс Н. Харрелл /James N. Harrell (в титрах: Jim Harrell), Фрэнк Стиггэлл /Frank Steggall/, Роджер Эрнест /Roger Ernest/, Мэрилл Коннали (Merrill Connally (в титрах: Merrill L. Connally))/, Джин Рейдер /Gene Rader/
Описание: "Шугарлендский экспресс" основан на подлинной истории Лу Джин Поплин, которая похитила заключенного из техасской тюрьмы и вовлекла полицию в безумную погоню по всей территории штата, пытаясь спасти своего сына от грозящего ему усыновления приемными родителями. Эта сложная роль оказалась достаточно соблазнительной, чтобы вернуть на экран звезду первой величины Голди Хоун, после того как она отказывалась сниматься в течение года, последовавшего за полученным ею премии "Оскаром" за роль в фильме "Цветок кактуса". Этот фильм является также дебютом в художественном кино тогда еще молодого, а ныне знаменитого режиссера Стивена Спилберга.
"Альтернативное описание: Авантюрно-криминальная мелодрама
Это первая работа Стивена Спилберга для кино, если не считать две телевизионные полнометражные ленты (в том числе — знаменитую «Дуэль»), которые тоже были выпущены на большой экран. И в фильме «Шугарлендский экспресс», как и прежде в «Дуэли», всего лишь 26-летний по возрасту режиссёр оригинально использовал тему дорожного преследования. Только на сей раз вдогонку устремилась чуть ли не вся полиция Техаса, а в качестве преследуемых оказалась симпатичная семейная парочка мелких воришек — Лу Джин и Кловис Майкл Поплин. После того, как молодая женщина вышла из тюрьмы, она буквально через три дня помогла оттуда сбежать ещё и своему мужу, и оба вместе отправились в городок Шугарленд, что находится на севере штата, желая забрать собственного трёхлетнего сына Лэнгстона, который был передан на воспитание приёмным родителям.
Интересно, что сценарий Хэла Барвуда и Мэтью Роббинса, получивший премию на престижном Каннском кинофестивале, основан на реальном случае, который произошёл в том же Техасе в 1969 году. Спилберг, будущий мастер суперзрелищных картин (пусть на эту продюсеры Дэвид Браун и Ричард Д. Занук выделили лишь $3 млн., да и их следующий совместный проект «Челюсти» стоил не так уж много), угадывается, прежде всего, во впечатляющих, хотя и не лишённых «смеха сквозь слёзы», увлекательных сценах погони по дорогам Техаса нескольких десятков полицейских машин. Это, в свою очередь, потом с блеском спародировал Джон Лэндис в авантюрной комедии «Братья Блюз», где лично Стивен Спилберг не отказал себе в удовольствии засветиться в качестве исполнителя маленькой роли." (Сергей Кудрявцев)
--------------------------------------------------------------------
Оператор: Вилмош Жигмонд /Vilmos Zsigmond/
Сценарист: Хэл Барвуд /Hal Barwood/
Продюсер: Дэвид Браун /David Brown/
Монтажер: Эдвард М. Абромс /Edward M. Abroms/
Композитор: Джон Уильямс /John Williams/
Художник: Джо Элвс /Joe Alves/
Исполнительный продюсер: Ричард Д. Занук / Richard D. Zanuck
--------------------------------------------------
КИНОПОИСК. RU
РЕЙТИНГ 7.077 оценки: 788
6,8/10 from 8 305 users
--------------------------------------------------
Доп. информация: Видеоряд >>>The Sugarland Express 1974 720p WEB DL H264 CtrlHD [PublicHD]
Многоголосый и английский отсюда >>> HDTV - Спасибо Karabasof
-------------------------------------------------
СЭМПЛ
--------------------------------------------------
Примечание: Скорость маленькая 50 kb/c, но раздаю круглосуточно.
--------------------------------------------------
Тип релиза: WEB-DL 720p
Контейнер: MKV
Видео: H264; 1280 x542; 23.976 fps; ~ 3 855 Kbps; 0.232 Bits/Pixel
Аудио 1: Russian - 48 kHz, AC3 Dolby Digital, 2/0 (L,R) 2ch, ~192 kbps - MVO
Аудио 2: English - 48 kHz, AC3 Dolby Digital, 2/0 (L,R) 2ch, ~384 kbps - Original
Формат субтитров: English (*UTF-8)

MediaInfo

General
Complete name : F:\EXCLUZIVE=19\ШУГАРЛЕНДСКИЙ ЭКСПРЕСС=SUGARLAND EXPRESS, THE 1974\Sugarland Express, The.1974\The.Sugarland.Express.1974.720p.WEB-D.mkv
Format : Matroska
File size : 3.47 GiB
Duration : 1h 49mn
Overall bit rate : 4 521 Kbps
Encoded date : UTC 2014-02-18 20:27:35
Writing application : mkvmerge v3.3.0 ('Language') built on Mar 24 2010 14:59:24
Writing library : libebml v0.8.0 + libmatroska v0.9.0
Video
ID : 1
Format : AVC
Format/Info : Advanced Video Codec
Format profile : Main@L3.1
Format settings, CABAC : No
Format settings, ReFrames : 2 frames
Muxing mode : Container profile=Unknown@3.1
Codec ID : V_MPEG4/ISO/AVC
Duration : 1h 49mn
Bit rate : 3 855 Kbps
Width : 1 280 pixels
Height : 542 pixels
Display aspect ratio : 2.35:1
Frame rate : 23.976 fps
Color space : YUV
Chroma subsampling : 4:2:0
Bit depth : 8 bits
Scan type : Progressive
Bits/(Pixel*Frame) : 0.232
Stream size : 2.96 GiB (85%)
Title : The.Sugarland.Express.1974.
Language : English
Color primaries : BT.709-5, BT.1361, IEC 61966-2-4, SMPTE RP177
Transfer characteristics : BT.709-5, BT.1361
Matrix coefficients : BT.709-5, BT.1361, IEC 61966-2-4 709, SMPTE RP177
Audio #1
ID : 2
Format : AC-3
Format/Info : Audio Coding 3
Mode extension : CM (complete main)
Codec ID : A_AC3
Duration : 1h 49mn
Bit rate mode : Constant
Bit rate : 192 Kbps
Channel(s) : 2 channels
Channel positions : Front: L R
Sampling rate : 48.0 KHz
Stream size : 151 MiB (4%)
Title : MVO @ AC3 2ch. 192 kbps
Language : Russian
Audio #2
ID : 3
Format : AC-3
Format/Info : Audio Coding 3
Mode extension : CM (complete main)
Codec ID : A_AC3
Duration : 1h 49mn
Bit rate mode : Constant
Bit rate : 384 Kbps
Channel(s) : 2 channels
Channel positions : Front: L R
Sampling rate : 48.0 KHz
Stream size : 302 MiB (8%)
Title : Original @ AC3 2ch. 384 kbps
Language : English
Text
ID : 4
Format : UTF-8
Codec ID : S_TEXT/UTF8
Codec ID/Info : UTF-8 Plain Text
Title : (* UTF-8)
Language : English
Menu
00:00:00.000 : en:Pre-Release (Main Titles)
00:03:07.000 : en:Leaving Today
00:11:52.000 : en:Written Warning
00:15:51.000 : en:Never Shot a Man
00:18:18.000 : en:Real Trouble
00:23:38.000 : en:Bad Hombre
00:26:57.000 : en:Gettin' Gas
00:33:03.000 : en:Hold It!
00:42:27.000 : en:Drive-Thru
00:49:18.000 : en:Racked Up
00:58:26.000 : en:Sweet Talk
01:07:05.000 : en:Reserve Officers
01:13:18.000 : en:We Got 'Em
01:22:01.000 : en:Stopping for Supplies
01:27:30.000 : en:Innocent People
01:34:37.000 : en:This is Goodbye
01:39:58.000 : en:Don't Stop
01:47:23.000 : en:End Titles

Скриншот c названием фильма

Скриншоты

, ,
, ,
, ,
Мои раздачи фильмов в Авторском переводе

_________________
Показать сообщения:    

Текущее время: Сегодня 02:08

Часовой пояс: GMT



Вы не можете начинать темы
Вы не можете отвечать на сообщения
Вы не можете редактировать свои сообщения
Вы не можете удалять свои сообщения
Вы не можете голосовать в опросах
Вы не можете прикреплять файлы к сообщениям
Вы не можете скачивать файлы