Ивановский Торрент трекер
Яндекс.Погода
 

[Цитировать]
HUNTER

Штамм Андромеда / The Andromeda Strain
«The picture runs 130 minutes!... The story covers 96 of the most critical hours in man's history!... The suspense will last through your lifetime!»
Год выпуска: 1971
Страна: США
Производство: Universal Pictures
Жанр: Фантастика, триллер
Продолжительность: 02:10:37
Перевод 1: Профессиональный (дублированный)
Перевод 2: Профессиональный (двухголосый закадровый)
Оригинальная аудиодорожка: Английский
Субтитры: Русские, английские
Режиссёр: Роберт Уайз
В ролях: Артур Хилл, Дэвид Уэйн, Джеймс Олсон, Кейт Рид, Паула Келли, Джордж Митчелл, Рамон Биери, Кермит Мёрдок, Ричард О’Брайэн, Питер Хоббс и др.
Описание: Фильм рассказывает историю о том, как вместе с космическим зондом на Землю попадает инопланетный вирус, способный вызывать мутацию у заражённых людей. Большей частью действие фильма разворачивается в подземной военной лаборатории в сердце пустыни, в которой учёные исследуют инопланетный вирус и пытаются найти способы противостоять ему.


Release Group: SbR
Сэмпл
Качество: BDRip 720p
Формат: MKV
Видео: MPEG-4 AVC: ~9138 kbps / 1280x536 / 23.976 fps / 16:9
Аудио: Russian: DTS / 2.0 / 48 kHz / 448 kbps / 24-bit | Дубляж
Аудио: Russian: AC3 / 2.0 / 48 kHz / 192 kbps | Двухголосый закадровый
Аудио: English: FLAC / 2.0 / 48 kHz / 636 kbps / 24-bit | Оригинальный

MediaInfoXP

GeneralUnique ID : 233913880939996674253107414512093665504 (0xAFFA2CBDCB1A6F198344A4D1E82498E0)Complete name : F:\The.Andromeda.Strain.1971.720p.BluRay.2xRus.Eng.x264-SbR.mkvFormat : MatroskaFormat version : Version 4 / Version 2File size : 9.50 GiBDuration : 2h 10mnOverall bit rate mode : VariableOverall bit rate : 10.4 MbpsEncoded date : UTC 2015-08-26 05:14:20Writing application : mkvmerge v8.3.0 ('Over the Horizon') 64bitWriting library : libebml v1.3.1 + libmatroska v1.4.2Attachements : cover.jpgDURATION : 02:05:29.688000000NUMBER_OF_FRAMES : 1337NUMBER_OF_BYTES : 61201_STATISTICS_WRITING_APP : mkvmerge v8.3.0 ('Over the Horizon') 64bit_STATISTICS_WRITING_DATE_UTC : 2015-08-26 05:14:20_STATISTICS_TAGS : BPS DURATION NUMBER_OF_FRAMES NUMBER_OF_BYTES
VideoID : 1Format : AVCFormat/Info : Advanced Video CodecFormat profile : High@L4.1Format settings, CABAC : YesFormat settings, ReFrames : 12 framesCodec ID : V_MPEG4/ISO/AVCDuration : 2h 10mnWidth : 1 280 pixelsHeight : 536 pixelsDisplay aspect ratio : 2.40:1Frame rate mode : ConstantFrame rate : 23.976 fpsColor space : YUVChroma subsampling : 4:2:0Bit depth : 8 bitsScan type : ProgressiveWriting library : x264 core 146 r0+2586 e393126 t_mod_Custom [8-bit@all X86_64]Encoding settings : cabac=1 / ref=12 / deblock=1:-3:-3 / analyse=0x3:0x133 / me=esa / subme=9 / psy=1 / fade_compensate=0.00 / psy_rd=1.05:0.15 / mixed_ref=1 / me_range=24 / chroma_me=1 / trellis=2 / 8x8dct=1 / cqm=0 / deadzone=21,11 / fast_pskip=0 / chroma_qp_offset=-3 / threads=6 / lookahead_threads=1 / sliced_threads=0 / nr=0 / decimate=1 / interlaced=0 / bluray_compat=0 / constrained_intra=0 / fgo=0 / bframes=12 / b_pyramid=2 / b_adapt=2 / b_bias=0 / direct=3 / weightb=1 / open_gop=0 / weightp=2 / keyint=250 / keyint_min=23 / scenecut=40 / intra_refresh=0 / rc_lookahead=60 / rc=crf / mbtree=0 / crf=16.5000 / qcomp=0.60 / qpmin=0:0:0 / qpmax=69:69:69 / qpstep=4 / vbv_maxrate=62500 / vbv_bufsize=78125 / crf_max=0.0 / nal_hrd=none / filler=0 / ip_ratio=1.30 / pb_ratio=1.20 / aq=1:0.65 / aq-sensitivity=10.00 / aq-factor=1.00:1.00:1.00 / aq2=0 / aq3=0Language : EnglishDefault : YesForced : NoColor range : LimitedColor primaries : BT.709Transfer characteristics : BT.709Matrix coefficients : BT.709DURATION : 02:10:37.038000000NUMBER_OF_FRAMES : 187901NUMBER_OF_BYTES : 8951966303_STATISTICS_WRITING_APP : mkvmerge v8.3.0 ('Over the Horizon') 64bit_STATISTICS_WRITING_DATE_UTC : 2015-08-26 05:14:20_STATISTICS_TAGS : BPS DURATION NUMBER_OF_FRAMES NUMBER_OF_BYTES
Audio #1ID : 2Format : DTSFormat/Info : Digital Theater SystemsMode : 16Format settings, Endianness : BigCodec ID : A_DTSDuration : 2h 10mnBit rate mode : ConstantBit rate : 447 KbpsChannel(s) : 2 channelsChannel positions : Front: L RSampling rate : 48.0 KHzBit depth : 24 bitsCompression mode : LossyStream size : 418 MiB (4%)Title : ДубляжLanguage : RussianDefault : YesForced : No
Audio #2ID : 3Format : AC-3Format/Info : Audio Coding 3Mode extension : CM (complete main)Format settings, Endianness : BigCodec ID : A_AC3Duration : 2h 10mnBit rate mode : ConstantBit rate : 192 KbpsChannel(s) : 2 channelsChannel positions : Front: L RSampling rate : 48.0 KHzCompression mode : LossyStream size : 179 MiB (2%)Title : Профессиональный (двухголосый закадровый)Language : RussianDefault : NoForced : No
Audio #3ID : 4Format : FLACFormat/Info : Free Lossless Audio CodecCodec ID : A_FLACDuration : 2h 10mnBit rate mode : VariableChannel(s) : 2 channelsSampling rate : 48.0 KHzBit depth : 24 bitsTitle : 636 KbpsWriting library : libFLAC 1.2.1 (UTC 2007-09-17)Language : EnglishDefault : NoForced : No
Text #1ID : 5Format : UTF-8Codec ID : S_TEXT/UTF8Codec ID/Info : UTF-8 Plain TextTitle : forLanguage : RussianDefault : YesForced : No
Text #2ID : 6Format : UTF-8Codec ID : S_TEXT/UTF8Codec ID/Info : UTF-8 Plain TextLanguage : RussianDefault : NoForced : No
Text #3ID : 7Format : UTF-8Codec ID : S_TEXT/UTF8Codec ID/Info : UTF-8 Plain TextLanguage : EnglishDefault : NoForced : No
Text #4ID : 8Format : UTF-8Codec ID : S_TEXT/UTF8Codec ID/Info : UTF-8 Plain TextLanguage : EnglishDefault : NoForced : No
Menu00:00:00.000 : en:00:00:00.00000:05:11.895 : en:00:05:11.89500:17:14.492 : en:00:17:14.49200:25:54.386 : en:00:25:54.38600:32:37.122 : en:00:32:37.12200:34:34.990 : en:00:34:34.99000:46:12.061 : en:00:46:12.06100:55:14.394 : en:00:55:14.39400:58:51.153 : en:00:58:51.15301:04:59.646 : en:01:04:59.64601:09:42.678 : en:01:09:42.67801:18:01.260 : en:01:18:01.26001:28:06.823 : en:01:28:06.82301:31:02.040 : en:01:31:02.04001:35:57.835 : en:01:35:57.83501:41:52.773 : en:01:41:52.77301:45:41.293 : en:01:45:41.29301:53:46.778 : en:01:53:46.77802:04:02.894 : en:02:04:02.89402:10:11.595 : en:02:10:11.595

Скриншот с названием фильма

Скриншоты

Для модератора

На поглощение: http://rutracker.org/forum/viewtopic.php?t=3369507
Показать сообщения:    

Текущее время: 22-Сен 10:52

Часовой пояс: UTC - 1


Вы не можете начинать темы
Вы не можете отвечать на сообщения
Вы не можете редактировать свои сообщения
Вы не можете удалять свои сообщения
Вы не можете голосовать в опросах
Вы не можете прикреплять файлы к сообщениям
Вы не можете скачивать файлы

!ВНИМАНИЕ!
Сайт не предоставляет электронные версии произведений, а занимается лишь коллекционированием и каталогизацией ссылок, присылаемых и публикуемых на форуме нашими читателями. Если вы являетесь правообладателем какого-либо представленного материала и не желаете, чтобы ссылка на него находилась в нашем каталоге, свяжитесь с нами, и мы незамедлительно удалим ее. Файлы для обмена на трекере предоставлены пользователями сайта, и администрация не несет ответственности за их содержание. Просьба не заливать файлы, защищенные авторскими правами, а также файлы нелегального содержания!