Ивановский Торрент трекер
Яндекс.Погода
 

[Цитировать]
HUNTER

Шрек / Shrek
Год выпуска: 2001
Страна: США
Жанр: мультфильм, фэнтези, комедия, приключения
Продолжительность: 01:30:05
Перевод: Авторский (одноголосый закадровый) - Андрей Дольский
Русские субтитры: нет
Оригинальная аудиодорожка: английский
Режиссёр: Эндрю Адамсон / Andrew Adamson, Вики Дженсон / Vicky Jenson
Роли озвучивали: Майк Майерс (Shrek), Эдди Мёрфи (Donkey), Кэмерон Диаз (Princess Fiona), Джон Литгоу (Lord Farquaad), Венсан Кассель (Monsieur Hood), Питер Деннис (Ogre Hunter), Клайв Пирс (Ogre Hunter), Джим Каммингс (Captain of Guards), Бобби Блок (Baby Bear), Крис Миллер (Geppetto / Magic Mirror)-Мировая премьера: 22 апреля 2001-Описание: Жил да был в сказочном государстве большой зеленый великан по имени Шрек. Жил он в гордом одиночестве в лесу, на болоте, которое считал своим. Но однажды злобный коротышка — лорд Фаркуад, правитель волшебного королевства, безжалостно согнал на Шреково болото всех сказочных обитателей. И беспечной жизни зеленого великана пришел конец. Но лорд Фаркуад пообещал вернуть Шреку болото, если великан добудет ему прекрасную принцессу Фиону, которая томится в неприступной башне, охраняемой огнедышащим драконом…-Доп. информация:
За исходник видео большое спасибо dragomire.
За оцифровку Дольского с видеокассеты большое спасибо ducklyng-by2
Синхронизация перевода - JUSTKANT.-Данный перевод на трекере появляется впервые.-

MPAA: PG - Рекомендуется присутствие родителей.-Качество: HDRip
Формат: AVI -> //SAMPLE//
Видео: XviD, 720x400 (16:9), 23.976 fps, 1866 kbps avg
Аудио:
1 - 48 khz, AC3 Dolby Digital, 2/0 (L,R) ch, ~192 kbps [Дольский] VHSRip
2 - 48 khz, AC3 Dolby Digital, 2/0 (L,R) ch, ~192 kbps [Английский]

Субтитры: отсутствуют

Подробные технические данные

GeneralComplete name : D:\Релизы на Трекере\Шрек (Дольский + Original Eng).aviFormat : AVIFormat/Info : Audio Video InterleaveFile size : 1.42 GiBDuration : 1h 30mnOverall bit rate : 2 264 KbpsWriting application : VirtualDubMod 1.5.10.2 (build 2540/release)Writing library : VirtualDubMod build 2540/release
VideoID : 0Format : MPEG-4 VisualFormat profile : Advanced Simple@L5Format settings, BVOP : 1Format settings, QPel : NoFormat settings, GMC : No warppointsFormat settings, Matrix : Default (MPEG)Codec ID : XVIDCodec ID/Hint : XviDDuration : 1h 30mnBit rate : 1 866 KbpsWidth : 720 pixelsHeight : 400 pixelsDisplay aspect ratio : 16:9Frame rate : 23.976 fpsColor space : YUVChroma subsampling : 4:2:0Bit depth : 8 bitsScan type : ProgressiveCompression mode : LossyBits/(Pixel*Frame) : 0.270Stream size : 1.17 GiB (82%)Writing library : XviD 1.2.1 (UTC 2008-12-04)
Audio #1ID : 1Format : AC-3Format/Info : Audio Coding 3Mode extension : CM (complete main)Format settings, Endianness : BigCodec ID : 2000Duration : 1h 30mnBit rate mode : ConstantBit rate : 192 KbpsChannel(s) : 2 channelsChannel positions : Front: L RSampling rate : 48.0 KHzBit depth : 16 bitsCompression mode : LossyStream size : 124 MiB (8%)Alignment : Split accross interleavesInterleave, duration : 42 ms (1.00 video frame)Interleave, preload duratio : 500 ms
Audio #2ID : 2Format : AC-3Format/Info : Audio Coding 3Mode extension : CM (complete main)Format settings, Endianness : BigCodec ID : 2000Duration : 1h 30mnBit rate mode : ConstantBit rate : 192 KbpsChannel(s) : 2 channelsChannel positions : Front: L RSampling rate : 48.0 KHzBit depth : 16 bitsCompression mode : LossyStream size : 124 MiB (8%)Alignment : Split accross interleavesInterleave, duration : 42 ms (1.00 video frame)Interleave, preload duratio : 500 ms

Скриншоты

Показать сообщения:    

Текущее время: 20-Окт 13:34

Часовой пояс: UTC - 1


Вы не можете начинать темы
Вы не можете отвечать на сообщения
Вы не можете редактировать свои сообщения
Вы не можете удалять свои сообщения
Вы не можете голосовать в опросах
Вы не можете прикреплять файлы к сообщениям
Вы не можете скачивать файлы

!ВНИМАНИЕ!
Сайт не предоставляет электронные версии произведений, а занимается лишь коллекционированием и каталогизацией ссылок, присылаемых и публикуемых на форуме нашими читателями. Если вы являетесь правообладателем какого-либо представленного материала и не желаете, чтобы ссылка на него находилась в нашем каталоге, свяжитесь с нами, и мы незамедлительно удалим ее. Файлы для обмена на трекере предоставлены пользователями сайта, и администрация не несет ответственности за их содержание. Просьба не заливать файлы, защищенные авторскими правами, а также файлы нелегального содержания!