Важное объявление!
У Нас Все раздачи мультитрекерные, при нуле пиров в релизах, можете смело вставать на закачку!
Статистика раздачи
Размер:     |    Зарегистрирован:     |    Скачан:     |   
Нет
 
     
 
 
Автор Сообщение

neon10_10

Стаж:
6 лет 6 месяцев
Сообщений:
63

Репутация: 49

[+] [-]
Вне форума [Профиль] [ЛС]

Шпион, выйди вон! / Tinker Tailor Soldier Spy-«Секретная информация будет раскрыта»-
Страна: Германия, Франция, Великобритания
Жанр:Триллер, детектив
Год выпуска: 2011
Продолжительность: 02:07:22-Перевод: Профессиональный (полное дублирование) + одноголосый С.Визгунов
Формат субтитров: srt, pgs
Оригинальная аудиодорожка: Английская-Режиссёр: Томас Альфредсон / Tomas Alfredson-В ролях: Гари Олдман, Колин Фёрт, Том Харди, Джон Хёрт, Тоби Джонс, Марк Стронг, Бенедикт Камбербэтч, Кьяран Хайндс, Константин Хабенский, Светлана Ходченкова-Описание: Многие сотрудники британской разведки догадывались, что в ее руководстве давно засел «крот», работающий на Россию. Но те, кто отваживался об этом заявлять открыто, почему-то оказывались в отставке. Остальные предпочитали помалкивать. Но подтверждение существования русского агента пришло с совсем неожиданной стороны. Начинается тайное расследование, возглавляемое находящимся в отставке Джорджем Смайли. И никто, включая высшее руководство разведки, не должен догадаться, что на крота снова объявлена охота.-Доп. инфо: Перевод С.Визгунова доступен благодаря timur1965, Pe3aK, Scaramouche, Rayan, Yota (hdclub), tide, Tio, foxlight, safreks, dir, carnivale, Bilko (e180.ru).-Исходник: Tinker Tailor Soldier Spy 2011 1080p Blu-ray AVC DTS-HD MA 5.1-HDChina
Тип релиза: BDRemux
Контейнер: MKV
Видео: MPEG-4 AVC / 26982 kbps / 1920х1080p / 23,976 fps / 16:9 / High Profile 4.1
Аудио 1: Русский дубляж / Dolby Digital / 5.1 / 384 kbps / 48 kHz
Аудио 2: Русский одноголосый С.Визгунов / DTS-HD MA / 5.1 / 48 kHz / 3260 kbps /24-bit (DTS Core: 5.1 / 48 kHz / 768 kbps / 24-bit) (спасибо Devlad)
Аудио 3: Английский / DTS-HD MA / 5.1 / 48 kHz / 3256 kbps /24-bit (DTS Core: 5.1 / 48 kHz / 768 kbps / 24-bit)
Cубтитры 1: Русские srt (Е.Воронин по дубляжу)
Cубтитры 2: Украинские R5 srt (спасибо Админ-у)
Cубтитры 3: Английские SDH srt
Cубтитры 4: Английские SDH pgs
Чаптеры: есть
Сэмпл: СКАЧАТЬ-

MediaInfo

Код:
Полное имя                       : Tinker.Tailor.Soldier.Spy.2011.Blu-ray.1080p.AVC.Rus.Eng.mkv
Формат                           : Matroska
Версия формата                   : Version 2
Размер файла                     : 30,2 Гбайт
Продолжительность                : 2 ч. 7 м.
Режим общего битрейта            : Переменный
Общий поток                      : 33,9 Мбит/сек
Название фильма                  : HANSMER
Дата кодирования                 : UTC 2012-01-16 17:56:22
Программа кодирования            : mkvmerge v5.2.1 ('A Far Off Place') built on Jan  2 2012 23:21:10
Библиотека кодирования           : libebml v1.2.3 + libmatroska v1.3.0
Видео
Идентификатор                    : 1
Формат                           : AVC
Формат/Информация                : Advanced Video Codec
Профиль формата                  : High@L4.1
Параметр CABAC формата           : Да
Параметр ReFrames формата        : 3 кадра
Режим смешивания                 : Container profile=Unknown@0.0
Идентификатор кодека             : V_MPEG4/ISO/AVC
Продолжительность                : 2 ч. 7 м.
Вид битрейта                     : Переменный
Битрейт                          : 29,5 Мбит/сек
Максимальный битрейт             : 35,0 Мбит/сек
Ширина                           : 1920 пикселей
Высота                           : 1080 пикселей
Соотношение сторон               : 16:9
Частота кадров                   : 23,976 кадра/сек
Стандарт вещания                 : NTSC
Цветовое пространство            : YUV
Субдискретизация насыщенности    : 4:2:0
Битовая глубина                  : 8 бит
Тип развёртки                    : Прогрессивная
Бит/(Пиксели*Кадры)              : 0.593
Размер потока                    : 26,2 Гбайт (87%)
Заголовок                        : 26982 kbps
Язык                             : English
Основные цвета                   : BT.709-5, BT.1361, IEC 61966-2-4, SMPTE RP177
Характеристики трансфера         : BT.709-5, BT.1361
Коэффициенты матрицы             : BT.709-5, BT.1361, IEC 61966-2-4 709, SMPTE RP177
Аудио #1
Идентификатор                    : 2
Формат                           : AC-3
Формат/Информация                : Audio Coding 3
Расширение режима                : CM (complete main)
Идентификатор кодека             : A_AC3
Продолжительность                : 2 ч. 7 м.
Вид битрейта                     : Постоянный
Битрейт                          : 384 Кбит/сек
Каналы                           : 6 каналов
Расположение каналов             : Front: L C R, Side: L R, LFE
Частота                          : 48,0 КГц
Битовая глубина                  : 16 бит
Метод сжатия                     : С потерями
Размер потока                    : 350 Мбайт (1%)
Заголовок                        : Dub
Язык                             : Russian
Аудио #2
Идентификатор                    : 3
Формат                           : DTS
Формат/Информация                : Digital Theater Systems
Профиль формата                  : MA / Core
Идентификатор кодека             : A_DTS
Продолжительность                : 2 ч. 7 м.
Вид битрейта                     : Переменный
Битрейт                          : 806 Кбит/сек / 755 Кбит/сек
Каналы                           : 6 каналов
Расположение каналов             : Front: L C R, Side: L R, LFE
Частота                          : 48,0 КГц
Битовая глубина                  : 24 бит
Метод сжатия                     : Без потерь / Lossy
Заголовок                        : S.Vizgunov / DTS-HD MA 5.1 @ 3260 kbps
Язык                             : Russian
Аудио #3
Идентификатор                    : 4
Формат                           : DTS
Формат/Информация                : Digital Theater Systems
Профиль формата                  : MA / Core
Идентификатор кодека             : A_DTS
Продолжительность                : 2 ч. 7 м.
Вид битрейта                     : Переменный
Битрейт                          : 2552 Кбит/сек / 755 Кбит/сек
Каналы                           : 6 каналов
Расположение каналов             : Front: L C R, Side: L R, LFE
Частота                          : 48,0 КГц
Битовая глубина                  : 24 бит
Метод сжатия                     : Без потерь / Lossy
Заголовок                        : DTS-HD MA 5.1 @ 3256 kbps
Язык                             : English
Текст #1
Идентификатор                    : 5
Формат                           : UTF-8
Идентификатор кодека             : S_TEXT/UTF8
Идентификатор кодека/Информация  : UTF-8 Plain Text
Заголовок                        : voronine
Язык                             : Russian
Текст #2
Идентификатор                    : 6
Формат                           : UTF-8
Идентификатор кодека             : S_TEXT/UTF8
Идентификатор кодека/Информация  : UTF-8 Plain Text
Язык                             : Ukrainian
Текст #3
Идентификатор                    : 7
Формат                           : UTF-8
Идентификатор кодека             : S_TEXT/UTF8
Идентификатор кодека/Информация  : UTF-8 Plain Text
Заголовок                        : SDH
Язык                             : English
Текст #4
Идентификатор                    : 8
Формат                           : PGS
Идентификатор кодека             : S_HDMV/PGS
Идентификатор кодека/Информация  : The same subtitle format used on BDs/HD-DVDs
Заголовок                        : SDH
Язык                             : English
Меню
00:00:00.000                     : en:Budapest
00:12:39.801                     : en:Lacon
00:22:44.655                     : en:Starting Work
00:35:04.853                     : en:Tarr
00:48:35.913                     : en:A Secret
00:59:11.256                     : en:Lion's Den
01:10:34.522                     : en:A Story
01:24:45.706                     : en:Home Visit
01:34:48.808                     : en:Breakthrough
01:41:51.147                     : en:Messenger
01:51:18.422                     : en:Reveal
02:00:19.337                     : en:Home
-Источник:

_________________
dchub://neonhub37.no-ip.info:411
Показать сообщения:    

Текущее время: Сегодня 02:03

Часовой пояс: GMT



Вы не можете начинать темы
Вы не можете отвечать на сообщения
Вы не можете редактировать свои сообщения
Вы не можете удалять свои сообщения
Вы не можете голосовать в опросах
Вы не можете прикреплять файлы к сообщениям
Вы не можете скачивать файлы