Важное объявление!
У Нас Все раздачи мультитрекерные, при нуле пиров в релизах, можете смело вставать на закачку!
 
Автор Сообщение

HUNTER

Стаж:
4 года 7 месяцев
Сообщений:
61487

Репутация: 101

[+] [-]
Вне форума [Профиль] [ЛС]

Шпионы / Spione-
Год выпуска: 1928
Страна: Германия
Жанр: триллер
Продолжительность: 02:30:28
Перевод: Субтитры
Оригинальная аудиодорожка: музыкальное сопровождение
Cубтитры: Русские (rz5, Citizen, VudoS), английские, немецкие интертитры-Режиссер: Фриц Ланг / Fritz Lang
В ролях: Рудольф Кляйн-Рогге, Герда Маурус, Лин Дейерс, Луис Ральф, Вилли Фрич, Пауль Хёрбигер, Герта фон Вальтер, Фриц Расп, Лупу Пик, Крэйгел Шерри-Описание:
По роману Теи фон Харбоу.
После ряда наглых похищений, иногда среди бела дня, государственных секретных документов, правительственные круги в бешенстве и грозят разогнать верхушку охранительных органов. Искать пропавшие документы назначают секретного агента N 326. Он понимает, что выступает против самой искушенной агентурной сети Европы, возглавляемой безжалостным банкиром...-За синхронизацию субтитров спасибо Core_soul.
| IMDb | Сэмпл-Качество: BDRip 720p (HaB)
Контейнер: MKV
Видео: x264, 960x720 (1.33:1), 23.976 fps, 12.9 Mbps
Аудио 1: АC3 2.0, 48 kHz, 448 kbps — Score by Donald Sosin
Аудио 2: AC3 2.0, 48 kHz, 448 kbps — Score by Neil Brand

Скриншоты

Screenshot Comparison
HaB vs. Source vs. mfcorrea





-

MI

nfo
RELEASE NAME....: Spione.1928.720p.BluRay.AC3.x264-HaB
RELEASE SIZE....: 14.8 GiB
RUNTIME.........: 2h 30mn
VIDEO CODEC... .: x264, crf, High@L4.0
FRAMERATE.......: 23.976 fps
VIDEO BITRATE...: 12.9 Mbps
RESOLUTION......: 960x720
AUDIO.1.........: Score by Donald Sosin, AC3 2.0, 448 kbps
AUDIO.1.........: Score by Neil Brand, AC3 2.0, 448 kbps
SUBTITLES.......: English for German intertitles
CHAPTERS........: Included
SOURCE..........: Spione 1928 1080p GBR Blu-ray AVC LPCM 2.0-ESiR
Masters of Cinema - November 24th, 2014
General
Unique ID : 212962093482054997886388937981301768286 (0xA03701DD78E56543A572CE23E65E405E)
Complete name : Spione.1928.720p.BluRay.AC3.x264-HaB.mkv
Format : Matroska
Format version : Version 2
File size : 14.8 GiB
Duration : 2h 30mn
Overall bit rate : 14.0 Mbps
Movie name : Spione / Шпионы (1928) – RuTracker
Encoded date : UTC 2015-02-02 20:41:18
Writing application : mkvmerge v7.5.0 ('Glass Culture') 64bit built on Jan 4 2015 16:48:44
Writing library : libebml v1.3.1 + libmatroska v1.4.2
Attachements : cover.jpg
Video
ID : 1
Format : AVC
Format/Info : Advanced Video Codec
Format profile : High@L4.0
Format settings, CABAC : Yes
Format settings, ReFrames : 12 frames
Codec ID : V_MPEG4/ISO/AVC
Duration : 2h 30mn
Bit rate : 12.9 Mbps
Width : 960 pixels
Height : 720 pixels
Display aspect ratio : 4:3
Frame rate mode : Constant
Frame rate : 23.976 fps
Color space : YUV
Chroma subsampling : 4:2:0
Bit depth : 8 bits
Scan type : Progressive
Bits/(Pixel*Frame) : 0.776
Stream size : 13.5 GiB (92%)
Title : Spione.1928.720p.AC3.x264-HaB
Writing library : x264 core 142 r2431+42 c69a006 tMod [8-bit@all X86_64]
Encoding settings : cabac=1 / ref=12 / deblock=1:-3:-3 / analyse=0x3:0x133 / me=tesa / subme=11 / psy=1 / fade_compensate=0.00 / psy_rd=0.90:0.00 / mixed_ref=1 / me_range=24 / chroma_me=1 / trellis=2 / 8x8dct=1 / cqm=0 / deadzone=21,11 / fast_pskip=0 / chroma_qp_offset=-2 / threads=9 / lookahead_threads=2 / sliced_threads=0 / nr=0 / decimate=0 / interlaced=0 / bluray_compat=0 / constrained_intra=0 / fgo=0 / bframes=16 / b_pyramid=2 / b_adapt=2 / b_bias=0 / direct=3 / weightb=1 / open_gop=0 / weightp=2 / keyint=250 / keyint_min=23 / scenecut=40 / intra_refresh=0 / rc=crf / mbtree=0 / crf=19.3000 / qcomp=0.65 / qpmin=0:0:0 / qpmax=69:69:69 / qpstep=4 / ip_ratio=1.40 / pb_ratio=1.30 / aq=3:0.75 / aq-sensitivity=10.00 / aq-factor=1.00:1.00:1.00 / aq2=0 / aq3=0
Language : German
Default : Yes
Forced : No
Matrix coefficients : BT.709
Color range : Limited
Audio #1
ID : 2
Format : AC-3
Format/Info : Audio Coding 3
Mode extension : CM (complete main)
Format settings, Endianness : Big
Codec ID : A_AC3
Duration : 2h 30mn
Bit rate mode : Constant
Bit rate : 448 Kbps
Channel(s) : 2 channels
Channel positions : Front: L R
Sampling rate : 48.0 KHz
Bit depth : 16 bits
Compression mode : Lossy
Stream size : 482 MiB (3%)
Title : Score by Donald Sosin
Default : Yes
Forced : No
Audio #2
ID : 3
Format : AC-3
Format/Info : Audio Coding 3
Mode extension : CM (complete main)
Format settings, Endianness : Big
Codec ID : A_AC3
Duration : 2h 30mn
Bit rate mode : Constant
Bit rate : 448 Kbps
Channel(s) : 2 channels
Channel positions : Front: L R
Sampling rate : 48.0 KHz
Bit depth : 16 bits
Compression mode : Lossy
Stream size : 482 MiB (3%)
Title : Score by Neil Brand
Default : No
Forced : No
Text #1
ID : 4
Format : UTF-8
Codec ID : S_TEXT/UTF8
Codec ID/Info : UTF-8 Plain Text
Title : rz5
Language : Russian
Default : Yes
Forced : No
Text #2
ID : 5
Format : UTF-8
Codec ID : S_TEXT/UTF8
Codec ID/Info : UTF-8 Plain Text
Language : English
Default : No
Forced : No
Menu
00:00:00.000 : en:Opening Titles
00:04:03.117 : en:A Summons
00:13:21.800 : en:The Enemy
00:21:04.805 : en:Haghi Bank
00:26:22.747 : en:Sonja
00:38:32.977 : en:Persuasion
00:44:21.283 : en:Meeting
00:53:38.173 : en:Danielli
01:01:36.693 : en:A Farewell Kiss
01:13:24.566 : en:Dr. Matsumoto
01:18:37.671 : en:Colonel Jellusic
01:27:26.741 : en:Secret Document
01:32:22.620 : en:Bank Notes
01:42:36.233 : en:Harakiri
01:53:52.367 : en:33 133
02:02:23.419 : en:Wreckage
02:10:47.297 : en:Bombs & Guns
02:24:12.560 : en:Where is Haghi?

_________________
Показать сообщения:    

Текущее время: Сегодня 05:27

Часовой пояс: GMT



Вы не можете начинать темы
Вы не можете отвечать на сообщения
Вы не можете редактировать свои сообщения
Вы не можете удалять свои сообщения
Вы не можете голосовать в опросах
Вы не можете прикреплять файлы к сообщениям
Вы не можете скачивать файлы
Наши партнеры: интернет магазин Ивановского трикотажа textilla.ru