Важное объявление!
У Нас Все раздачи мультитрекерные, при нуле пиров в релизах, можете смело вставать на закачку!
 
Автор Сообщение

HUNTER

Стаж:
4 года 9 месяцев
Сообщений:
65057

Репутация: 101

[+] [-]
Вне форума [Профиль] [ЛС]

Шпионский мостBridge of Spies-
Год выпуска: 2015
Страна: США, Германия, Индия
Жанр: триллер, драма, биография
Продолжительность: 02:21:19-Перевод: Профессиональный (полное дублирование) [iTunes]
Субтитры: Нет
Режиссер: Стивен Спилберг / Steven Spielberg
В ролях: Том Хэнкс (James B. Donovan), Марк Райлэнс (Rudolf Abel), Эми Райан (Mary Donovan), Алан Алда (Thomas Watters Jr.), Остин Стоуэлл (Francis Gary Powers), Скотт Шеперд (Hoffman), Джесси Племонс (Joe Murphy), Доменик Ломбардоззи (Agent Blasco), Себастьян Кох (Wolfgang Vogel), Ив Хьюсон (Carol Donovan), Дэкин Мэтьюз (Judge Byers), Майкл Гэстон (Agent Williams)-Описание: Действие фильма происходит на фоне серии реальных исторических событий и рассказывает о бруклинском адвокате Джеймсе Доноване, который оказывается в эпицентре холодной войны, когда ЦРУ отправляет его на практически невозможное задание - договориться об освобождении захваченного в СССР американского пилота самолета-разведчика U2.--Качество: BDRip-AVC
Контейнер: MKV
Видео кодек: AVC
Аудио кодек: AC3
Видео: AVC, 1040x432 (2.40:1), 1688 kbps, 23,976 fps, 0,157 bpp
Аудио: Русский / AC3 / 5.1 / 48 kHz / 384 kbps / 16 bit - -

Скриншоты

Media Info

General
Unique ID : 249092055022974445787738078099305623912 (0xBB65628023FC79E4A9872A30C0277168)
Complete name : D:\Торрент\Шпионский.мост.2015.BDRip-AVC.mkv
Format : Matroska
Format version : Version 4 / Version 2
File size : 2.05 GiB
Duration : 2h 21mn
Overall bit rate : 2 077 Kbps
Encoded date : UTC 2016-02-04 06:27:51
Writing application : mkvmerge v8.8.0 ('Wind at my back') 32bit
Writing library : Lavf56.25.101
Video
ID : 1
Format : AVC
Format/Info : Advanced Video Codec
Format profile : High@L4.1
Format settings, CABAC : Yes
Format settings, ReFrames : 5 frames
Codec ID : V_MPEG4/ISO/AVC
Duration : 2h 21mn
Bit rate : 1 688 Kbps
Width : 1 040 pixels
Height : 432 pixels
Display aspect ratio : 2.40:1
Original display aspect rat : 2.40:1
Frame rate mode : Constant
Frame rate : 23.976 fps
Color space : YUV
Chroma subsampling : 4:2:0
Bit depth : 8 bits
Scan type : Progressive
Bits/(Pixel*Frame) : 0.157
Stream size : 1.63 GiB (80%)
Writing library : x264 core 148 r2597M e86f3a1
Encoding settings : cabac=1 / ref=5 / deblock=1:-1:-1 / analyse=0x3:0x133 / me=umh / subme=9 / psy=1 / psy_rd=1.00:0.15 / mixed_ref=1 / me_range=16 / chroma_me=1 / trellis=1 / 8x8dct=1 / cqm=0 / deadzone=21,11 / fast_pskip=1 / chroma_qp_offset=-3 / threads=6 / lookahead_threads=1 / sliced_threads=0 / nr=0 / decimate=1 / interlaced=0 / bluray_compat=0 / constrained_intra=0 / bframes=5 / b_pyramid=2 / b_adapt=2 / b_bias=0 / direct=3 / weightb=1 / open_gop=0 / weightp=2 / keyint=230 / keyint_min=23 / scenecut=40 / intra_refresh=0 / rc_lookahead=40 / rc=2pass / mbtree=1 / bitrate=1688 / ratetol=1.0 / qcomp=0.60 / qpmin=0 / qpmax=69 / qpstep=4 / cplxblur=20.0 / qblur=0.5 / ip_ratio=1.40 / aq=1:1.00
Language : English
Default : Yes
Forced : No
DURATION : 02:21:17.803000000
NUMBER_OF_FRAMES : 203264
NUMBER_OF_BYTES : 1791393741
_STATISTICS_WRITING_APP : mkvmerge v8.8.0 ('Wind at my back') 32bit
_STATISTICS_WRITING_DATE_UT : 2016-02-04 06:27:51
_STATISTICS_TAGS : BPS DURATION NUMBER_OF_FRAMES NUMBER_OF_BYTES
Audio
ID : 2
Format : AC-3
Format/Info : Audio Coding 3
Mode extension : CM (complete main)
Format settings, Endianness : Big
Codec ID : A_AC3
Duration : 2h 21mn
Bit rate mode : Constant
Bit rate : 384 Kbps
Channel(s) : 6 channels
Channel positions : Front: L C R, Side: L R, LFE
Sampling rate : 48.0 KHz
Compression mode : Lossy
Stream size : 388 MiB (18%)
Language : Russian
Default : Yes
Forced : No
DURATION : 02:21:19.648000000
NUMBER_OF_FRAMES : 264989
NUMBER_OF_BYTES : 407023104
_STATISTICS_WRITING_APP : mkvmerge v8.8.0 ('Wind at my back') 32bit
_STATISTICS_WRITING_DATE_UT : 2016-02-04 06:27:51
_STATISTICS_TAGS : BPS DURATION NUMBER_OF_FRAMES NUMBER_OF_BYTES
Menu
00:00:00.000 : :Chapter 1
00:10:29.462 : :Chapter 2
00:17:46.482 : :Chapter 3
00:22:09.828 : :Chapter 4
00:25:27.901 : :Chapter 5
00:31:18.210 : :Chapter 6
00:37:45.722 : :Chapter 7
00:45:29.268 : :Chapter 8
00:52:36.695 : :Chapter 9
01:00:39.427 : :Chapter 10
01:07:17.867 : :Chapter 11
01:16:52.399 : :Chapter 12
01:33:55.672 : :Chapter 13
01:45:41.752 : :Chapter 14
01:56:31.193 : :Chapter 15
02:07:20.550 : :Chapter 16
02:14:18.801 : :Chapter 17

_________________
Показать сообщения:    

Текущее время: Сегодня 04:25

Часовой пояс: GMT



Вы не можете начинать темы
Вы не можете отвечать на сообщения
Вы не можете редактировать свои сообщения
Вы не можете удалять свои сообщения
Вы не можете голосовать в опросах
Вы не можете прикреплять файлы к сообщениям
Вы не можете скачивать файлы