Ивановский Торрент трекер
Яндекс.Погода
 

[Цитировать]
HUNTER

Школьный бал 2: Привет Мэри Лу / Hello Mary Lou: Prom Night II / Prom Night 2 / The Haunting of Hamilton High
Страна: Канада
Студия: Simcom Limited
Жанр: ужасы
Год выпуска: 1987
Продолжительность: 01:36:37
Перевод: Одноголосый закадровый RussianGuy27
Перевод 2: Авторский (одноголосый закадровый) Дольский
Cубтитры: английские
Оригинальная аудиодорожка: английский
Режиссер: Брюс Питтман / Bruce Pittman
В ролях: Майкл Айронсайд, Уэнди Лайон, Джастин Луис
Описание: В 1957 году девушка по имени Мэри Лу Малони отвергла своего парня Билла Нордхэма ради другого, который впоследствии стал священником, отцом Купером. На школьном балу ее выбрали королевой бала. Но Билл, движимый жаждой мести, поднялся на крышу над сценой, где Мэри Лу примеряла диадему и сбросил на нее дымовую шашку. Появившийся огонь в одно мгновение охватил пламенем платье Мэри Лу, и она погибла. Прошло тридцать лет. Спокойная и милая девушка Викки собирается стать королевой выпускного бала. Она находит на школьном складе платье и диадему, которые принадлежали Мэри Лу. Постепенно Викки становится жестче и грубее, пока не выясняется, что мертвая примадонна из 1957 года выбрала именно ее для возвращения в этот мир. Друзья Викки погибают. Мэри Лу охотится за виновником своей собственной смерти…
Картина не имеет практически ничего общего с оригиналом, а представляет собой мистический рассказ об овладении человеком дьяволом («Изгоняющий дьявола», 1973) и кровной мести («Кэрри», 1976). Почти все персонажи фильма носят фамилии известных режиссеров фильмов ужасов: Джорджа Ромеро, Уэса Крейвена, Стивена Кинга, Тода Броунинга, Джо Данте, Фрэнка Хенелоттера и Джона Уотерса. На международном кинофестивале в Аворьзе картина номинировалась на Гран-при. В прокате США картина собрала 2, 7 миллионов долларов.
Доп. информация: Диск из собственной коллекции.
Внимание присутствует ненорматиная лексика..

скрытый текст

Мать её
Сэмпл: http://sendfile.su/1162640
Тип релиза: DVD9 (Custom)
Контейнер: DVD-Video
Видео: NTSC 16:9 (720x480) VBR Auto Pan&Scan
Аудио: Russian (Dolby AC3, 192 Кбит/сек, 2 ch)
Аудио 2: Russian (Dolby AC3, 192 Кбит/сек, 2 ch)
Аудио 3: English (Dolby AC3, 192 Кбит/сек, 2 ch)
Аудио 4: English (Dolby AC3, 192 Кбит/сек, 2 ch)
Формат субтитров: prerendered (DVD/IDX+SUB)

DVDInfo

Size: 4.51 Gb ( 4 727 202 KBytes ) - DVD-9
Enabled regions: 1, 2, 3, 4, 5, 6, 7, 8
VTS_01 :
Play Length: 00:00:02
Video: NTSC 16:9 (720x480) VBR, Auto Pan&Scan
VTS_02 :
Play Length: 00:00:14
Video: NTSC 16:9 (720x480) VBR, Auto Pan&Scan
Audio:
English (Dolby AC3, 6 ch)
VTS_03 :
Play Length:
Video: NTSC 16:9 (720x480) VBR, Auto Letterboxed
VTS_04 :
Play Length: 00:00:09
Video: NTSC 16:9 (720x480) VBR, Auto Pan&Scan
VTS_05 :
Play Length: 00:00:07
Video: NTSC 16:9 (720x480) VBR, Auto Letterboxed
VTS_06 :
Play Length: 01:36:37
Video: NTSC 16:9 (720x480) VBR, Auto Pan&Scan
Audio:
Russian (Dolby AC3, 2 ch)
Russian (Dolby AC3, 2 ch)
English (Dolby AC3, 2 ch)
English (Dolby AC3, 2 ch)
Subtitles:
English
English
Espanol
Espanol
Francais
Francais
VTS_07 :
Play Length: 00:00:14
Video: NTSC 16:9 (720x480) VBR, Auto Pan&Scan
Audio:
English (Dolby AC3, 6 ch)
Menu Video:
NTSC 16:9 (720x480) VBR
Auto Letterboxed
Menu Subtitles:
Not specified
Menu English Language Unit :
Root Menu
Subpicture Menu
Audio Menu
Chapter (PTT) Menu

MediaInfo

Общее
Полное имя : K:\Prom Night 2 Hello Mary Lou_1987\VIDEO_TS\VTS_06_1.VOB
Формат : MPEG-PS
Размер файла : 1024 Мбайт
Продолжительность : 21 м.
Режим общего битрейта : Переменный
Общий поток : 6586 Кбит/сек
Видео
Идентификатор : 224 (0xE0)
Формат : MPEG Video
Версия формата : Version 2
Профиль формата : Main@Main
Параметр BVOP формата : Да
Параметр матрицы формата : Выборочная
Продолжительность : 21 м.
Вид битрейта : Переменный
Битрейт : 5687 Кбит/сек
Максимальный битрейт : 9800 Кбит/сек
Ширина : 720 пикселей
Высота : 480 пикселей
Соотношение сторон : 16:9
Частота кадров : 23,976 кадра/сек
Стандарт вещания : Component
Цветовое пространство : YUV
Субдискретизация насыщенности : 4:2:0
Битовая глубина : 8 бит
Тип развёртки : Прогрессивная
Порядок развёртки : 2:3 Pulldown
Метод сжатия : С потерями
Бит/(Пиксели*Кадры) : 0.686
Размер потока : 884 Мбайт (86%)
Основные цвета : BT.601 NTSC
Характеристики трансфера : BT.601
Коэффициенты матрицы : BT.601
Аудио #1
Идентификатор : 189 (0xBD)-128 (0x80)
Формат : AC-3
Формат/Информация : Audio Coding 3
Расширение режима : CM (complete main)
Параметр Endianness формата : Big
Режим смешивания : DVD-Video
Продолжительность : 21 м.
Вид битрейта : Постоянный
Битрейт : 192 Кбит/сек
Каналы : 2 канала
Расположение каналов : Front: L R
Частота : 48,0 КГц
Битовая глубина : 16 бит
Метод сжатия : С потерями
Размер потока : 29,9 Мбайт (3%)
Аудио #2
Идентификатор : 189 (0xBD)-129 (0x81)
Формат : AC-3
Формат/Информация : Audio Coding 3
Расширение режима : CM (complete main)
Параметр Endianness формата : Big
Режим смешивания : DVD-Video
Продолжительность : 21 м.
Вид битрейта : Постоянный
Битрейт : 192 Кбит/сек
Каналы : 2 канала
Расположение каналов : Front: L R
Частота : 48,0 КГц
Битовая глубина : 16 бит
Метод сжатия : С потерями
Размер потока : 29,9 Мбайт (3%)
Аудио #3
Идентификатор : 189 (0xBD)-130 (0x82)
Формат : AC-3
Формат/Информация : Audio Coding 3
Расширение режима : CM (complete main)
Параметр Endianness формата : Big
Режим смешивания : DVD-Video
Продолжительность : 21 м.
Вид битрейта : Постоянный
Битрейт : 192 Кбит/сек
Каналы : 2 канала
Расположение каналов : Front: L R
Частота : 48,0 КГц
Битовая глубина : 16 бит
Метод сжатия : С потерями
Размер потока : 29,9 Мбайт (3%)
Аудио #4
Идентификатор : 189 (0xBD)-131 (0x83)
Формат : AC-3
Формат/Информация : Audio Coding 3
Расширение режима : CM (complete main)
Параметр Endianness формата : Big
Режим смешивания : DVD-Video
Продолжительность : 21 м.
Вид битрейта : Постоянный
Битрейт : 192 Кбит/сек
Каналы : 2 канала
Расположение каналов : Front: L R
Частота : 48,0 КГц
Битовая глубина : 16 бит
Метод сжатия : С потерями
Размер потока : 29,9 Мбайт (3%)
Меню

Скриншоты меню

Скриншоты

Показать сообщения:    

Текущее время: 24-Сен 11:21

Часовой пояс: UTC - 1


Вы не можете начинать темы
Вы не можете отвечать на сообщения
Вы не можете редактировать свои сообщения
Вы не можете удалять свои сообщения
Вы не можете голосовать в опросах
Вы не можете прикреплять файлы к сообщениям
Вы не можете скачивать файлы

!ВНИМАНИЕ!
Сайт не предоставляет электронные версии произведений, а занимается лишь коллекционированием и каталогизацией ссылок, присылаемых и публикуемых на форуме нашими читателями. Если вы являетесь правообладателем какого-либо представленного материала и не желаете, чтобы ссылка на него находилась в нашем каталоге, свяжитесь с нами, и мы незамедлительно удалим ее. Файлы для обмена на трекере предоставлены пользователями сайта, и администрация не несет ответственности за их содержание. Просьба не заливать файлы, защищенные авторскими правами, а также файлы нелегального содержания!