Важное объявление!
У Нас Все раздачи мультитрекерные, при нуле пиров в релизах, можете смело вставать на закачку!
 
Автор Сообщение

HUNTER

Стаж:
4 года 8 месяцев
Сообщений:
62020

Репутация: 101

[+] [-]
Вне форума [Профиль] [ЛС]

Школьный автобус / серии 1-5 из 5
-Название: Школьный автобус
Год выпуска: 2014
Страна: Россия, Израиль
Производство: «Открытый телеканал»
Источник Web: www.opentv.tv
Жанр: телепередача
Продолжительность: 01:38:12
Перевод: оригинал (русский язык)
Субтитры: нет-В ролях: Виктория Проскуров, Михаил Аршавский
Режиссёр: Семён Винокур-Описание: Как разрешать конфликты с детьми – вопрос не праздный. Для многих родителей конфликты с детьми являются серьёзной проблемой. Можно ли обойтись без конфликтов? Педагог-консультант Виктория Проскуров обсуждает это с ведущим программы «Школьный автобус», журналистом Михаилом Аршавским. И напоминает: нет никаких шансов, что ребёнок будет вести себя иначе, чем ведут себя родители.-Качество: WEB-DLRip
Формат: MP4
Видеокодек: MPEG-4 AVC (H.264)
Аудиокодек: ACC
Видео: 1280 x 720, 25,000 fps, ~ 1 200 Kbps, ~ 0.050 bit/pixel
Аудио: 44,1 kHz, 2 ch, ~ 128 kb/s- Аудиоверсия телепередачи «Школьный автобус» / выпуски 1-4 из 4

Скриншоты

MediaInfo


ОбщееПолное имя : teleprogramma.Shkolnyj_avtobus.2013-2014.WEB-DLRip.Rus.Mp4\Школьный_автобус-Дети_после_развода.mp4Формат : MPEG-4Профиль формата : Base MediaИдентификатор кодека : isomРазмер файла : 182 МбайтПродолжительность : 19 м.Режим общего битрейта : ПеременныйОбщий поток : 1329 Кбит/сек
ВидеоИдентификатор : 1Формат : AVCФормат/Информация : Advanced Video CodecПрофиль формата : Baseline@L3.1Параметр CABAC формата : НетПараметр ReFrames формата : 1 кадрИдентификатор кодека : avc1Идентификатор кодека/Информация : Advanced Video CodingПродолжительность : 19 м.Битрейт : 1200 Кбит/секШирина : 1280 пикселейВысота : 720 пикселейСоотношение сторон : 16:9Режим частоты кадров : ПостоянныйЧастота кадров : 25,000 кадров/секЦветовое пространство : YUVСубдискретизация насыщенности : 4:2:0Битовая глубина : 8 битТип развёртки : ПрогрессивнаяБит/(Пиксели*Кадры) : 0.052Размер потока : 164 Мбайт (90%)Библиотека кодирования : x264 core 112
АудиоИдентификатор : 2Формат : AACФормат/Информация : Advanced Audio CodecПрофиль формата : LCИдентификатор кодека : 40Продолжительность : 19 м.Вид битрейта : ПеременныйБитрейт : 128 Кбит/секКаналы : 2 каналаРасположение каналов : Front: L RЧастота : 44,1 КГцМетод сжатия : С потерямиРазмер потока : 17,5 Мбайт (10%)

Список серий


01. Школьный_автобус-Дети_после_развода - (19:09)
02. Школьный_автобус-Как_разрешать_конфликты_с_детьми - (20:27)
03. Школьный_автобус-Наказание_и_поощрение_детей - (21:24)
04. Школьный_автобус-Проблемы_подростков - (19:00)
05. Школьный_автобус-Ребёнок_идёт_в_первый_класс - (18:09)

Внимание! Раздача ведётся путём добавления новых выпусков

Внимание! Раздача ведётся путём добавления новых выпусков; при каждом добавлении создаётся новый торрент. Чтобы начать докачку нового выпуска, пользователям необходимо сделать следующее:
(1) остановить скачивание,
(2) удалить старый торрент у себя из клиента (старые серии удалять не надо),
(3) скачать новый торрент и запустить его у себя в клиенте вместо старого, при этом указать клиенту путь в старую папку куда и должно происходить скачивание новых выпусков.
Ваш клиент при этом должен произвести хеширование (проверку) старой папки (если не производит сам - помогите ему сделать это). В результате он будет докачивать только те выпуски, которых у Вас ещё нет. Старые выпуски при этом не удаляются, а продолжают раздаваться!
Eсли Вы уже удалили старые выпуски, то предотвратить их повторную закачку можно, сняв галочки в соответствующих местах при запуске нового торрента. По возможности, желательно не удалять старые выпуски как можно дольше, чтобы релизёр не только продолжал раздавать старые выпуски, но и смог сконцентрироваться на новых.

Дополнительная информация

- О нас
Добро пожаловать!
Мы создали «Открытый телеканал» для того, чтобы способствовать позитивным переменам в жизни. Поэтому в наших передачах мы говорим практически о 3 вещах: что представляет собой окружающий нас сегодня мир, что представляем собой мы сами и что нам делать для того, чтобы прийти к гармонии – с самими собой и с сегодняшним глобальным миром.
Надеемся, что не разочаруем. Мы абсолютно убеждены, что позитивные перемены в обществе не произойдут по приказу “сверху”. Они возможны, только если их захочет само общество, то есть мы с вами. Стоит лишь 10% из нас прийти к согласию и оно неизбежно будет принято всем обществом, включая правительство.
Так что, наша судьба находится в наших же руках. Не будем её выпускать.
И ещё. Наш телеканал – некоммерческий проект. Он создан и функционирует исключительно благодаря волонтерам. Всё, что вы видите на нём, создано, как раньше выражались, в свободное от основной работы время.
Ну, и использование материалов сайта на других ресурсах разрешается без ограничения, но с обязательной гиперссылкой на «Открытый телеканал».
Искренне ваши, Общественное движение “Арвут”

_________________
Показать сообщения:    

Текущее время: Сегодня 16:59

Часовой пояс: GMT



Вы не можете начинать темы
Вы не можете отвечать на сообщения
Вы не можете редактировать свои сообщения
Вы не можете удалять свои сообщения
Вы не можете голосовать в опросах
Вы не можете прикреплять файлы к сообщениям
Вы не можете скачивать файлы
Наши партнеры: интернет магазин Ивановского трикотажа textilla.ru