Ивановский Торрент трекер
Яндекс.Погода
 

[Цитировать]
HUNTER

Школа Эвер Афтер. Сказка наизнанку / Ever After High. Spring Unsprung
Год выпуска: 2015
Страна: Канада
Жанр: фэнтези, комедия
Продолжительность: 00:44:10
Перевод: Профессиональный (дублированный)
Русские субтитры: нет
Режиссёр: Брэндон Скотт / Brandon Scott
Описание: Что теперь произошло в Школе Эвер Афтер такого, что все ученики бьют тревогу? Может быть снова Рейвен Квин решила пойти правил школы и своей судьбы? Или Сперроу Гуд сделал какую-нибудь пакость для своих одноклассников? Нет! Все дело совсем в другом, и пока что ученики пытаются понять, что случилось и как решить эту проблему.
Доп. информация:

Релиз группы:
Семпл: https://yadi.sk/i/CB3j1qzaijTgZ
Качество видео: DVB
Формат видео: MPEG-PS
Видео: MPEG2 Video, 720x576 (4:3), 25 fps, 2200 kbps
Аудио: MPEG Audiо, 2 сh, 48 kHz, 192 kbps

MediaInfo

Complete name : G:\Ever After High. Сказка наизнанку. (2015)_DVB by SLuMeP.mpg
Format : MPEG-PS
File size : 767 MiB
Duration : 44mn 10s
Overall bit rate mode : Variable
Overall bit rate : 2 427 Kbps
Video
ID : 224 (0xE0)
Format : MPEG Video
Format version : Version 2
Format profile : Main@Main
Format settings, BVOP : Yes
Format settings, Matrix : Custom
Format settings, GOP : Variable
Format settings, picture st : Frame
Duration : 44mn 10s
Bit rate mode : Variable
Bit rate : 2 186 Kbps
Maximum bit rate : 15.0 Mbps
Width : 720 pixels
Height : 576 pixels
Display aspect ratio : 4:3
Frame rate : 25.000 fps
Standard : PAL
Color space : YUV
Chroma subsampling : 4:2:0
Bit depth : 8 bits
Scan type : Interlaced
Scan order : Top Field First
Compression mode : Lossy
Bits/(Pixel*Frame) : 0.211
Time code of first frame : 00:00:00:00
Time code source : Group of pictures header
Stream size : 691 MiB (90%)
Audio
ID : 192 (0xC0)
Format : MPEG Audio
Format version : Version 1
Format profile : Layer 2
Duration : 44mn 10s
Bit rate mode : Constant
Bit rate : 192 Kbps
Channel(s) : 2 channels
Sampling rate : 48.0 KHz
Compression mode : Lossy
Stream size : 60.7 MiB (8%)

Скриншоты


Показать сообщения:    

Текущее время: 18-Окт 01:10

Часовой пояс: UTC - 1


Вы не можете начинать темы
Вы не можете отвечать на сообщения
Вы не можете редактировать свои сообщения
Вы не можете удалять свои сообщения
Вы не можете голосовать в опросах
Вы не можете прикреплять файлы к сообщениям
Вы не можете скачивать файлы

!ВНИМАНИЕ!
Сайт не предоставляет электронные версии произведений, а занимается лишь коллекционированием и каталогизацией ссылок, присылаемых и публикуемых на форуме нашими читателями. Если вы являетесь правообладателем какого-либо представленного материала и не желаете, чтобы ссылка на него находилась в нашем каталоге, свяжитесь с нами, и мы незамедлительно удалим ее. Файлы для обмена на трекере предоставлены пользователями сайта, и администрация не несет ответственности за их содержание. Просьба не заливать файлы, защищенные авторскими правами, а также файлы нелегального содержания!