Важное объявление!
У Нас Все раздачи мультитрекерные, при нуле пиров в релизах, можете смело вставать на закачку!
 
Автор Сообщение

HUNTER

Стаж:
4 года 9 месяцев
Сообщений:
65047

Репутация: 101

[+] [-]
Вне форума [Профиль] [ЛС]

Школа Монстров: Страх! Камера! Мотор! / Monster High: Frights, Camera, Action!
Страна: США
Жанр: Мультфильм
Продолжительность: 01:13:37
Год выпуска: 2014
Перевод: Профессиональный (дублированный) [Лицензия]
Оригинальная аудиодорожка: английский
Русские субтитры: нет
Режиссёр: Уильям Лау / William Lau
Роли озвучивали: Йени Альварез, Лаура Бэйли, Кэмерон Кларк, Эрин Фитзералд, Джони Гуд, Маркус Гриффин, Келест Хендерсон, Кейт Хиггинс, Джеймс Хоран
Описание: Когда Дракулаура решает, что она законная наследница вампирского трона, то вместе с подругами-монстрами отправляется прямиком в Трансильванию на вожделенную коронацию. Но вскоре они обнаруживают, что охота на королеву еще не окончена!Нашим героиням предстоит найти древнейший артефакт, известный как Сердце Вампира, чтобы узнать, кто является настоящей Королевой Вампиров. В захватывающем ДУХ приключении девушки побывают в Башне Лондума, на заколдованном корабле в Нью-Горлеане и даже в гламурном Хаунтливуде. Суждено ли Дракулауре обрести настоящие вампирские силы и правда ли, что самые УЖАСНЫЕ мечты становятся реальноствю
Доп. информация:
Семпл: http://multi-up.com/966332
Качество: HDRip
Формат: AVI
Видео: XVID, 720x400 (16:9), 23,976 кадра/сек, 1880 Кбит/сек
Аудио # 1: AC-3, 48,0 КГц, 384 Кбит/сек (6 каналов) Дубляж
Аудио # 2: AC-3, 48,0 КГц, 384 Кбит/сек (6 каналов) Оригинал
Субтитры: отсутствуют

Подробные технические данные

Формат : AVIФормат/Информация : Audio Video InterleaveРазмер файла : 1,37 ГбайтПродолжительность : 1 ч. 13 м.Общий поток : 2661 Кбит/секПрограмма кодирования : VirtualDubMod 1.5.10.2 (build 2540/release)Библиотека кодирования : VirtualDubMod build 2540/release
ВидеоИдентификатор : 0Формат : MPEG-4 VisualПрофиль формата : Advanced Simple@L5Параметр BVOP формата : 2Параметр QPel формата : НетПараметр GMC формата : Без точки переходаПараметр матрицы формата : Default (MPEG)Идентификатор кодека : XVIDИдентификатор кодека/Подсказка : XviDПродолжительность : 1 ч. 13 м.Битрейт : 1880 Кбит/секШирина : 720 пикселейВысота : 400 пикселейСоотношение сторон : 16:9Частота кадров : 23,976 кадра/секЦветовое пространство : YUVСубдискретизация насыщенности : 4:2:0Битовая глубина : 8 битТип развёртки : ПрогрессивнаяМетод сжатия : С потерямиБит/(Пиксели*Кадры) : 0.272Размер потока : 990 Мбайт (71%)Библиотека кодирования : XviD 1.2.1 (UTC 2008-12-04)
Аудио #1Идентификатор : 1Формат : AC-3Формат/Информация : Audio Coding 3Расширение режима : CM (complete main)Параметр Endianness формата : BigИдентификатор кодека : 2000Продолжительность : 1 ч. 13 м.Вид битрейта : ПостоянныйБитрейт : 384 Кбит/секКаналы : 6 каналовРасположение каналов : Front: L C R, Side: L R, LFEЧастота : 48,0 КГцБитовая глубина : 16 битМетод сжатия : С потерямиРазмер потока : 202 Мбайт (14%)Выравнивание : Разделение по промежуткамПродолжительность промежутка : 42 мс. (1,00 видеокадр)Время предзагрузки промежутка : 500 мс.
Аудио #2Идентификатор : 2Формат : AC-3Формат/Информация : Audio Coding 3Расширение режима : CM (complete main)Параметр Endianness формата : BigИдентификатор кодека : 2000Продолжительность : 1 ч. 13 м.Вид битрейта : ПостоянныйБитрейт : 384 Кбит/секКаналы : 6 каналовРасположение каналов : Front: L C R, Side: L R, LFEЧастота : 48,0 КГцБитовая глубина : 16 битМетод сжатия : С потерямиРазмер потока : 202 Мбайт (14%)Выравнивание : Разделение по промежуткамПродолжительность промежутка : 42 мс. (1,00 видеокадр)Время предзагрузки промежутка : 500 мс.

Скриншоты


_________________
Показать сообщения:    

Текущее время: Сегодня 17:30

Часовой пояс: GMT



Вы не можете начинать темы
Вы не можете отвечать на сообщения
Вы не можете редактировать свои сообщения
Вы не можете удалять свои сообщения
Вы не можете голосовать в опросах
Вы не можете прикреплять файлы к сообщениям
Вы не можете скачивать файлы