Важное объявление!
У Нас Все раздачи мультитрекерные, при нуле пиров в релизах, можете смело вставать на закачку!
 
Автор Сообщение

HUNTER

Стаж:
4 года 7 месяцев
Сообщений:
61439

Репутация: 101

[+] [-]
Вне форума [Профиль] [ЛС]

Школа Монстров: Призрачно / Monster High: Haunted
Страна: США
Жанр: Мультипликация
Продолжительность: 01:15:43
Год выпуска: 2015
Перевод: Профессиональный (дублированный)
Русские субтитры: нет-Режиссёр: Дэн Фрага, Уильям Лау / Dan Fraga, William Lau
Роли озвучивали: Хэвиланд Стиллвелл, Паула Родс, Синди Робинсон, Америка Янг, Кэм Кларк, Карен Страссман, Эрин Фицджералд, Салли Саффиоти, Лора Бэйли, Тодд Хаберкорн-Описание: Страшно представить, какие захватывающие приключения ждут девочек из Школы монстров в стенах таинственной Школы призраков! Монстряшки под предводительством Спектры Вондергейст случайно попадают в параллельный Мир Духов и их особую школу, которой руководит строгая Директор-Призрак. Она удерживает Спектру среди призраков, не позволяя ей вернуться домой. Пришло время УЖАСНО прекрасным подружкам бросить вызов духам, чтобы спасти одну из них от полного исчезновения!-Качество: BDRip 1080p
Формат: MKV
Видео: AVC, 1920x1080 (16:9), 23.976 fps, 6 749 Kbps (0.136 bit/pixel)
Аудио 1: AC-3, 48.0 KHz, 6 ch, 448 Kbps, CBR (Russian)
Аудио 2: DTS, 48.0 KHz, 6 ch, 1 510 Kbps, CBR (English)
Субтитры: English
Семпл: Забираем тут

Подробные технические данные

GeneralUnique ID : 181245362328412482316083773145404817557 (0x885A96497EFBAEF4A316742402424095)Complete name : Monster High Haunted 2015 BDRip 1080p.mkvFormat : MatroskaFormat version : Version 4 / Version 2File size : 4.61 GiBDuration : 1h 15mnOverall bit rate : 8 710 KbpsEncoded date : UTC 2015-03-18 17:46:15Writing application : mkvmerge v7.7.0 ('Six Voices') 64bit built on Feb 28 2015 23:39:33Writing library : libebml v1.3.1 + libmatroska v1.4.2DURATION : 01:15:05.446000000NUMBER_OF_FRAMES : 1195NUMBER_OF_BYTES : 40316_STATISTICS_WRITING_APP : mkvmerge v7.7.0 ('Six Voices') 64bit built on Feb 28 2015 23:39:33_STATISTICS_WRITING_DATE_UTC : 2015-03-18 17:46:15_STATISTICS_TAGS : BPS DURATION NUMBER_OF_FRAMES NUMBER_OF_BYTES
VideoID : 1Format : AVCFormat/Info : Advanced Video CodecFormat profile : High@L4.1Format settings, CABAC : YesFormat settings, ReFrames : 4 framesCodec ID : V_MPEG4/ISO/AVCDuration : 1h 15mnBit rate : 6 749 KbpsWidth : 1 920 pixelsHeight : 1 080 pixelsDisplay aspect ratio : 16:9Frame rate mode : ConstantFrame rate : 23.976 fpsColor space : YUVChroma subsampling : 4:2:0Bit depth : 8 bitsScan type : ProgressiveBits/(Pixel*Frame) : 0.136Stream size : 3.48 GiB (76%)Writing library : x264 core 144 r2525 40bb568Encoding settings : cabac=1 / ref=4 / deblock=1:0:0 / analyse=0x3:0x133 / me=umh / subme=7 / psy=1 / psy_rd=1.00:0.00 / mixed_ref=1 / me_range=16 / chroma_me=1 / trellis=1 / 8x8dct=1 / cqm=0 / deadzone=21,11 / fast_pskip=0 / chroma_qp_offset=-2 / threads=60 / lookahead_threads=8 / sliced_threads=0 / nr=0 / decimate=1 / interlaced=0 / bluray_compat=0 / constrained_intra=0 / bframes=3 / b_pyramid=2 / b_adapt=1 / b_bias=0 / direct=1 / weightb=1 / open_gop=0 / weightp=2 / keyint=250 / keyint_min=23 / scenecut=40 / intra_refresh=0 / rc_lookahead=40 / rc=2pass / mbtree=1 / bitrate=6749 / ratetol=1.0 / qcomp=0.60 / qpmin=0 / qpmax=69 / qpstep=4 / cplxblur=20.0 / qblur=0.5 / ip_ratio=1.40 / aq=1:1.00Language : EnglishDefault : YesForced : NoDURATION : 01:15:43.171000000NUMBER_OF_FRAMES : 108927NUMBER_OF_BYTES : 3833602272_STATISTICS_WRITING_APP : mkvmerge v7.7.0 ('Six Voices') 64bit built on Feb 28 2015 23:39:33_STATISTICS_WRITING_DATE_UTC : 2015-03-18 17:46:15_STATISTICS_TAGS : BPS DURATION NUMBER_OF_FRAMES NUMBER_OF_BYTES
Audio #1ID : 2Format : AC-3Format/Info : Audio Coding 3Mode extension : CM (complete main)Format settings, Endianness : BigCodec ID : A_AC3Duration : 1h 15mnBit rate mode : ConstantBit rate : 448 KbpsChannel(s) : 6 channelsChannel positions : Front: L C R, Side: L R, LFESampling rate : 48.0 KHzBit depth : 16 bitsCompression mode : LossyStream size : 243 MiB (5%)Language : RussianDefault : YesForced : No
Audio #2ID : 3Format : DTSFormat/Info : Digital Theater SystemsMode : 16Format settings, Endianness : BigCodec ID : A_DTSDuration : 1h 15mnBit rate mode : ConstantBit rate : 1 509 KbpsChannel(s) : 6 channelsChannel positions : Front: L C R, Side: L R, LFESampling rate : 48.0 KHzBit depth : 24 bitsCompression mode : LossyStream size : 817 MiB (17%)Language : EnglishDefault : NoForced : No
TextID : 4Format : UTF-8Codec ID : S_TEXT/UTF8Codec ID/Info : UTF-8 Plain TextLanguage : EnglishDefault : NoForced : No
Menu00:00:00.000 : en:00:00:00.00000:05:18.109 : en:00:05:18.10900:10:07.816 : en:00:10:07.81600:17:07.652 : en:00:17:07.65200:27:34.069 : en:00:27:34.06900:32:09.052 : en:00:32:09.05200:36:41.991 : en:00:36:41.99100:43:57.093 : en:00:43:57.09300:53:16.318 : en:00:53:16.31801:01:15.922 : en:01:01:15.92201:07:23.957 : en:01:07:23.95701:13:55.306 : en:01:13:55.306

Скриншоты



_________________
Показать сообщения:    

Текущее время: Сегодня 04:16

Часовой пояс: GMT



Вы не можете начинать темы
Вы не можете отвечать на сообщения
Вы не можете редактировать свои сообщения
Вы не можете удалять свои сообщения
Вы не можете голосовать в опросах
Вы не можете прикреплять файлы к сообщениям
Вы не можете скачивать файлы
Наши партнеры: интернет магазин Ивановского трикотажа textilla.ru