Важное объявление!
У Нас Все раздачи мультитрекерные, при нуле пиров в релизах, можете смело вставать на закачку!
 
Автор Сообщение

HUNTER

Стаж:
4 года 7 месяцев
Сообщений:
61460

Репутация: 101

[+] [-]
Вне форума [Профиль] [ЛС]

Школа монстров: Побег с Острова черепов / Monster High: Escape from Skull Shores-
Страна: США
Жанр: мультфильм
Год выпуска: 2012
Продолжительность: 00:46:02
Перевод: Профессиональный (полное дублирование)
Русские субтитры: Нет-Режиссер: Стив Болл / Steve Ball, Эндрю Дункан / Andrew Duncan-Роли озвучивали: Лора Бэйли (Lagoona Blue), Оги Бэнкс (Clawd Wolf), Кэм Кларк (Heath Burns / Ghost), Мальколм Дэнар (Kipling), Деби Дерриберри (Draculaura), Эрин Фицджералд (Abbey Bominable / Spectra Vondergeist), Кейт Хиггинс (Frankie Stein), Jonathan Lipow (The Tikis), Джордж Ньюберн (Andy Beast), Оду Паден (Ghoulia Yelps / Manny Taur / Nightmare), Синди Робинсон (Jackson Jekyll / Holt Hyde / Operetta), Салли Саффиоти (Clawdeen Wolf / Cleo DeNile)-Описание: Девочки готовятся к самой КЛЫКассной вечеринке во время весенних каникул в Школе Монстров: Побег с Острова Черепов. Но вскоре их яхта терпит крушение на загадочном острове, где Фрэнки Штейн похищает чудовище... непонятно, кому же из них потребуется помощь!-Рейтинг: -Мировая премьера: 17 февраля 2012-Релиз: -Семпл-Качество: BDRip [MHCLAWESOME_G51_HDCLUB]
Формат: AVI
Видео: 704x400 (1.76:1), 23.976 fps, XviD build 65 ~1860 kbps avg, 0.28 bit/pixel
Аудио: 48 kHz, AC3 Dolby Digital, 3/2 (L,C,R,l,r) + LFE ch, ~384 kbps
Субтитры: Отсутствуют-

MI

Format : AVIFormat/Info : Audio Video InterleaveFile size : 742 MiBDuration : 46mn 2sOverall bit rate : 2 254 KbpsWriting application : VirtualDubMod 1.5.10.3 | www.virtualdub-fr.org || (build 2550/release)Writing library : VirtualDubMod build 2550/release
VideoID : 0Format : MPEG-4 VisualFormat profile : Advanced Simple@L5Format settings, BVOP : 2Format settings, QPel : NoFormat settings, GMC : No warppointsFormat settings, Matrix : CustomCodec ID : XVIDCodec ID/Hint : XviDDuration : 46mn 2sBit rate : 1 861 KbpsWidth : 704 pixelsHeight : 400 pixelsDisplay aspect ratio : 16:9Frame rate : 23.976 fpsColor space : YUVChroma subsampling : 4:2:0Bit depth : 8 bitsScan type : ProgressiveCompression mode : LossyBits/(Pixel*Frame) : 0.276Stream size : 613 MiB (83%)Writing library : XviD 65
AudioID : 1Format : AC-3Format/Info : Audio Coding 3Mode extension : CM (complete main)Format settings, Endianness : BigCodec ID : 2000Duration : 46mn 2sBit rate mode : ConstantBit rate : 384 KbpsChannel(s) : 6 channelsChannel positions : Front: L C R, Side: L R, LFESampling rate : 48.0 KHzBit depth : 16 bitsCompression mode : LossyStream size : 126 MiB (17%)Alignment : Split accross interleavesInterleave, duration : 42 ms (1.00 video frame)Interleave, preload duration : 500 ms
Все раздачи мультфильма!

_________________
Показать сообщения:    

Текущее время: Сегодня 11:03

Часовой пояс: GMT



Вы не можете начинать темы
Вы не можете отвечать на сообщения
Вы не можете редактировать свои сообщения
Вы не можете удалять свои сообщения
Вы не можете голосовать в опросах
Вы не можете прикреплять файлы к сообщениям
Вы не можете скачивать файлы
Наши партнеры: интернет магазин Ивановского трикотажа textilla.ru