Важное объявление!
У Нас Все раздачи мультитрекерные, при нуле пиров в релизах, можете смело вставать на закачку!
 
Автор Сообщение

HUNTER

Стаж:
4 года 10 месяцев
Сообщений:
65561

Репутация: 101

[+] [-]
Вне форума [Профиль] [ЛС]

Школа монстров: Монстрические мутации / Monster High: Freaky Fusion
Страна: США
Жанр: Мультипликация
Продолжительность: 01:13:34
Год выпуска: 2014
Перевод: Профессиональный (дублированный)
Русские субтитры: нет-Режиссёр: Сильвен Блэ / Sylvain Blais, Уильям Лау / William Lau
Роли озвучивали: Лора Бэйли, Кейт Хиггинс, Паула Родс, Хэвиланд Стиллвелл, Америка Янг, Эрин Фицджералд, Дэйв Митчелл, Сью Свон, Джони Гуд, Селеста Хендерсон-Описание: Когда лаборатории в результате аварии появляются 4 новых монстра и 8 монстров перемешиваются телами, Фрэнки и новый гибридный студент пытается помочь ей привести друзей из Монстрических Мутаций в норму и остановить научный эксперимент, который пошел не так, прежде чем аппарат в лаборатории сломается окончательно.-Качество: BDRip 1080p
Формат: MKV
Видео: AVC, 1920x1080 (16:9), 23.976 fps, 3 457 Kbps (0.070 bit/pixel)
Аудио 1: AC-3, 48.0 KHz, 6 ch, 448 Kbps, CBR (Russian)
Аудио 2: DTS, 48.0 KHz, 6 ch, 1 510 Kbps, CBR (English)
Субтитры: English
Семпл: Забираем тут

Подробные технические данные

ОбщееУникальный идентификатор : 211065541317387869037906837161843386731 (0x9EC9BE9FC0E944F1A8009AA4E660696B)Полное имя : Monster High Freaky Fusion 2014 bdrip 1080p.mkvФормат : MatroskaВерсия формата : Version 4 / Version 2Размер файла : 2,84 ГбайтПродолжительность : 1 ч. 13 м.Режим общего битрейта : ПеременныйОбщий поток : 5524 Кбит/секДата кодирования : UTC 2014-10-08 07:28:15Программа кодирования : mkvmerge v7.2.0 ('On Every Street') 32bit built on Sep 13 2014 15:42:11Библиотека кодирования : libebml v1.3.0 + libmatroska v1.4.1DURATION : 01:11:58.389000000NUMBER_OF_FRAMES : 1330NUMBER_OF_BYTES : 38911_STATISTICS_WRITING_APP : mkvmerge v7.2.0 ('On Every Street') 32bit built on Sep 13 2014 15:42:11_STATISTICS_WRITING_DATE_UTC : 2014-10-08 07:28:15_STATISTICS_TAGS : BPS DURATION NUMBER_OF_FRAMES NUMBER_OF_BYTES
ВидеоИдентификатор : 1Формат : AVCФормат/Информация : Advanced Video CodecПрофиль формата : High@L4.0Параметр CABAC формата : ДаПараметр ReFrames формата : 4 кадраИдентификатор кодека : V_MPEG4/ISO/AVCПродолжительность : 1 ч. 13 м.Вид битрейта : ПеременныйБитрейт : 3457 Кбит/секМаксимальный битрейт : 40,0 Мбит/секШирина : 1920 пикселейВысота : 1080 пикселейСоотношение сторон : 16:9Режим частоты кадров : ПостоянныйЧастота кадров : 23,976 кадра/секЦветовое пространство : YUVСубдискретизация насыщенности : 4:2:0Битовая глубина : 8 битТип развёртки : ПрогрессивнаяБит/(Пиксели*Кадры) : 0.070Размер потока : 1,78 Гбайт (63%)Язык : EnglishDefault : ДаForced : Нет
Аудио #1Идентификатор : 2Формат : AC-3Формат/Информация : Audio Coding 3Расширение режима : CM (complete main)Параметр Endianness формата : BigИдентификатор кодека : A_AC3Продолжительность : 1 ч. 13 м.Вид битрейта : ПостоянныйБитрейт : 448 Кбит/секКаналы : 6 каналовРасположение каналов : Front: L C R, Side: L R, LFEЧастота : 48,0 КГцБитовая глубина : 16 битМетод сжатия : С потерямиРазмер потока : 236 Мбайт (8%)Язык : RussianDefault : ДаForced : Нет
Аудио #2Идентификатор : 3Формат : DTSФормат/Информация : Digital Theater SystemsРежим : 16Параметр Endianness формата : BigИдентификатор кодека : A_DTSПродолжительность : 1 ч. 13 м.Вид битрейта : ПостоянныйБитрейт : 1509 Кбит/секКаналы : 6 каналовРасположение каналов : Front: L C R, Side: L R, LFEЧастота : 48,0 КГцБитовая глубина : 24 битМетод сжатия : С потерямиРазмер потока : 794 Мбайт (27%)Язык : EnglishDefault : НетForced : Нет
ТекстИдентификатор : 4Формат : UTF-8Идентификатор кодека : S_TEXT/UTF8Идентификатор кодека/Информация : UTF-8 Plain TextЯзык : EnglishDefault : НетForced : Нет
Меню00:00:00.000 : en:00:00:00.00000:05:31.957 : en:00:05:31.95700:11:54.005 : en:00:11:54.00500:17:59.495 : en:00:17:59.49500:25:46.670 : en:00:25:46.67000:33:06.151 : en:00:33:06.15100:40:07.363 : en:00:40:07.36300:45:30.853 : en:00:45:30.85300:50:50.005 : en:00:50:50.00500:56:56.163 : en:00:56:56.16301:03:23.049 : en:01:03:23.04901:12:29.637 : en:01:12:29.637

Скриншоты



_________________
Показать сообщения:    

Текущее время: Сегодня 05:26

Часовой пояс: GMT



Вы не можете начинать темы
Вы не можете отвечать на сообщения
Вы не можете редактировать свои сообщения
Вы не можете удалять свои сообщения
Вы не можете голосовать в опросах
Вы не можете прикреплять файлы к сообщениям
Вы не можете скачивать файлы