Ивановский Торрент трекер
Яндекс.Погода
 

[Цитировать]
HUNTER

Школа Монстров: Бу-Йорк, Бу-Йорк / Monster High: Boo York, Boo York
Год выпуска: 2015
Страна: США
Жанр: мультфильм, семейный
Продолжительность: 01:08:35
Перевод: Профессиональный (дублированный)
Русские субтитры: нет
Режиссёр: Уильям Лау / William Lau
Описание: Приключения учениц школы Монстр Хай в городе моды и музыки Бу-Йорке.
Девочки отправляются покорять Бу-Йорк и выступать на Бладвее со своим мюзиклом. Тем временем в городе готовится грандиозная вечеринка в честь редкой кометы, которая совсем скоро прилетит на Землю. Эта комета обладает некой волшебной силой, и весь город гудит в ожидании долгожданного события.
Вместе с кометой с небес прилетит мечтательная девушка-инопланетянка. Она идеально дополнит музыкальную группу монстрических певиц, и вечеринка получится поистине незабываемой. Зажигай, Бу-Йорк!
Доп. информация:

Релиз группы:
Трансляция спутникового канала:

Семпл: https://yadi.sk/i/EDUgBgRzjyKBn
Качество видео: DVB
Формат видео: MPEG-PS
Видео: MPEG2 Video, 720x576 (4:3), 25 fps, 3100 kbps
Аудио: MPEG Audiо, 2 сh, 48 kHz, 192 kbps

MediaInfo

General
Complete name : D:\Monster High Boo York, Boo York. (2015)_DVB by SLuMeP.mpg
Format : MPEG-PS
File size : 1.59 GiB
Duration : 1h 8mn
Overall bit rate mode : Variable
Overall bit rate : 3 310 Kbps
Video
ID : 224 (0xE0)
Format : MPEG Video
Format version : Version 2
Format profile : Main@Main
Format settings, BVOP : No
Format settings, Matrix : Custom
Format settings, GOP : Variable
Duration : 1h 8mn
Bit rate mode : Variable
Bit rate : 3 052 Kbps
Maximum bit rate : 5 000 Kbps
Width : 720 pixels
Height : 576 pixels
Display aspect ratio : 4:3
Frame rate : 25.000 fps
Standard : PAL
Color space : YUV
Chroma subsampling : 4:2:0
Bit depth : 8 bits
Scan type : Interlaced
Scan order : Top Field First
Compression mode : Lossy
Bits/(Pixel*Frame) : 0.294
Time code of first frame : 00:00:00:00
Time code source : Group of pictures header
Stream size : 1.46 GiB (92%)
Audio
ID : 192 (0xC0)
Format : MPEG Audio
Format version : Version 1
Format profile : Layer 2
Duration : 1h 8mn
Bit rate mode : Constant
Bit rate : 192 Kbps
Channel(s) : 2 channels
Sampling rate : 48.0 KHz
Compression mode : Lossy
Stream size : 94.2 MiB (6%)

Скриншоты


Показать сообщения:    

Текущее время: 22-Окт 00:13

Часовой пояс: UTC - 1


Вы не можете начинать темы
Вы не можете отвечать на сообщения
Вы не можете редактировать свои сообщения
Вы не можете удалять свои сообщения
Вы не можете голосовать в опросах
Вы не можете прикреплять файлы к сообщениям
Вы не можете скачивать файлы

!ВНИМАНИЕ!
Сайт не предоставляет электронные версии произведений, а занимается лишь коллекционированием и каталогизацией ссылок, присылаемых и публикуемых на форуме нашими читателями. Если вы являетесь правообладателем какого-либо представленного материала и не желаете, чтобы ссылка на него находилась в нашем каталоге, свяжитесь с нами, и мы незамедлительно удалим ее. Файлы для обмена на трекере предоставлены пользователями сайта, и администрация не несет ответственности за их содержание. Просьба не заливать файлы, защищенные авторскими правами, а также файлы нелегального содержания!