Важное объявление!
У Нас Все раздачи мультитрекерные, при нуле пиров в релизах, можете смело вставать на закачку!
 
Автор Сообщение

HUNTER

Стаж:
4 года 6 месяцев
Сообщений:
60899

Репутация: 101

[+] [-]
Вне форума [Профиль] [ЛС]

Школа Монстров: Большой Кошмарный риф

Monster High: Great Scarrier Reef
-
Страна: США
Жанр: Мультфильм, приключения, семейный
Продолжительность: 01:11:34
Год выпуска: 2016-Перевод: Профессиональный (дублированный)
Русские субтитры: нет-Режиссёр: Уильям Лау / William Lau-Роли озвучивали: Лора Бэйли, Кэм Кларк, Деби Дерриберри, Эрин Фицджералд-Описание: Лагуна Блю получает подводные права и приглашает подруг в заплыв на субмарине. Она хочет проверить, действительно ли у школьного бассейна нет дна, а в глубинах его таится много опасностей. В погоне за острыми впечатлениями подружки заплывают слишком глубоко и попадают на территорию Большого Кошмарного рифа. С помощью волшебства дочери Посейдона — Поси Ри — девочки превращаются в русалок, напоминающих различных морских обитателей. Чтобы вернуться в школу, им придется побороть свои страхи и подружиться со злобным Кракеном. Лагуне же предстоит помириться с подругой детства Кала Мери.- -Качество: HDRip
Формат: AVI-Видео: 720x400 (16:9), 23.976 fps, XviD build 50, 2085 Kbps, 0.30 bit/pixel
Аудио 1: 48.0 kHz, AC3 Dolby Digital, 2/0 (L,R) ch, ~192 kbps [russ]
Аудио 2: 48.0 kHz, AC3 Dolby Digital, 3/2 (L,C,R,l,r) + LFE ch, 448 Kbps [eng]
Субтитры: отсутствуют-- -
-

Скриншоты

MediaInfo

General Complete name : Downloads\Monster.High Great.Scarrier.Reef.2016.D.HDRip.avi Format : AVI Format/Info : Audio Video Interleave File size : 1.37 GiB Duration : 1h 11mn Overall bit rate : 2 739 Kbps Writing application : VirtualDubMod 1.5.10.2 (build 2540/release) Writing library : VirtualDubMod build 2540/release Video #0 ID : 0 Format : MPEG-4 Visual Format profile : Advanced Simple@L5 Format settings, BVOP : 2 Format settings, QPel : No Format settings, GMC : No warppoints Format settings, Matrix : Default (MPEG) Codec ID : XVID Codec ID/Hint : XviD Duration : 1h 11mn Bit rate : 2 085 Kbps Width : 720 pixels Height : 400 pixels Display aspect ratio : 16:9 Frame rate : 23.976 fps Color space : YUV Chroma subsampling : 4:2:0 Bit depth : 8 bits Scan type : Progressive Compression mode : Lossy Bits/(Pixel*Frame) : 0.302 Stream size : 1.04 GiB (76%) Writing library : XviD 1.2.1 (UTC 2008-12-04) Audio #1 ID : 1 Format : AC-3 Format/Info : Audio Coding 3 Mode extension : CM (complete main) Format settings, Endianness : Big Codec ID : 2000 Duration : 1h 11mn Bit rate mode : Constant Bit rate : 192 Kbps Channel(s) : 2 channels Channel positions : Front: L R Sampling rate : 48.0 KHz Bit depth : 16 bits Compression mode : Lossy Stream size : 98.3 MiB (7%) Alignment : Split accross interleaves Interleave, duration : 42 ms (1.00 video frame) Interleave, preload duration : 500 ms Audio #2 ID : 2 Format : AC-3 Format/Info : Audio Coding 3 Mode extension : CM (complete main) Format settings, Endianness : Big Codec ID : 2000 Duration : 1h 11mn Bit rate mode : Constant Bit rate : 448 Kbps Channel(s) : 6 channels Channel positions : Front: L C R, Side: L R, LFE Sampling rate : 48.0 KHz Bit depth : 16 bits Compression mode : Lossy Stream size : 229 MiB (16%) Alignment : Split accross interleaves Interleave, duration : 42 ms (1.00 video frame) Interleave, preload duration : 500 ms

_________________
Показать сообщения:    

Текущее время: Сегодня 07:22

Часовой пояс: GMT



Вы не можете начинать темы
Вы не можете отвечать на сообщения
Вы не можете редактировать свои сообщения
Вы не можете удалять свои сообщения
Вы не можете голосовать в опросах
Вы не можете прикреплять файлы к сообщениям
Вы не можете скачивать файлы
Наши партнеры: интернет магазин Ивановского трикотажа textilla.ru