Школа Монстров: Большой кошмарный риф / Monster High: Great Scarrier Reef (Уильям Лау / William Lau) [2016, США, Мультипликация, BDRip 1080p] Dub :: Ивановский Торрент трекер
Важное объявление!
У Нас Все раздачи мультитрекерные, при нуле пиров в релизах, можете смело вставать на закачку!
Статистика раздачи
Размер:     |    Зарегистрирован:     |    Скачан:     |   
Нет
 
     
 
 
Автор Сообщение

HUNTER

Стаж:
4 года 11 месяцев
Сообщений:
66077

Репутация: 101

[+] [-]
Вне форума [Профиль] [ЛС]

Школа Монстров: Большой кошмарный риф / Monster High: Great Scarrier Reef
Страна: США
Жанр: Мультипликация
Продолжительность: 01:11:34
Год выпуска: 2016
Перевод: Профессиональный (дублированный)
Русские субтитры: нет-Режиссёр: Уильям Лау / William Lau
Роли озвучивали: Лора Бэйли, Кэм Кларк, Деби Дерриберри, Эрин Фицджералд, Тодд Хаберкорн, Мисси Хейл, Кейт Хиггинс, Уэнди Ли, Оду Паден.-Описание: Лагуна Блю получает подводные права и приглашает подруг в заплыв на субмарине. Она хочет проверить, действительно ли у школьного бассейна нет дна, а в глубинах его таится много опасностей. В погоне за острыми впечатлениями подружки заплывают слишком глубоко и попадают на территорию Большого Кошмарного рифа. С помощью волшебства дочери Посейдона — Поси Ри — девочки превращаются в русалок, напоминающих различных морских обитателей. Чтобы вернуться в школу, им придется побороть свои страхи и подружиться со злобным Кракеном. Лагуне же предстоит помириться с подругой детства Кала Мери.-Качество: BDRip 1080p
Формат: MKV
Видео: AVC, 1920x1080 (16:9), 23.976 fps, 7 232 Kbps (0.145 bit/pixel)
Аудио 1: AC-3, 48.0 KHz, 2 ch, 192 Kbps, CBR (Russian)
Аудио 2: DTS, 48.0 KHz, 6 ch, 1 510 Kbps, CBR (English)
Субтитры: English
Семпл: Забираем тут

Подробные технические данные

GeneralUnique ID : 236261101009764498118196747236679385907 (0xB1BE3BA02D5DBE2D991DA6F9E0288333)Complete name : Monster High Great Scarrier Reef 2016 BDRip 1080p.mkvFormat : MatroskaFormat version : Version 4 / Version 2File size : 4.47 GiBDuration : 1h 11mnOverall bit rate : 8 934 KbpsEncoded date : UTC 2016-03-12 10:48:07Writing application : mkvmerge v8.8.0 ('Wind at my back') 64bitWriting library : libebml v1.3.3 + libmatroska v1.4.4
VideoID : 1Format : AVCFormat/Info : Advanced Video CodecFormat profile : High@L4.1Format settings, CABAC : YesFormat settings, ReFrames : 4 framesCodec ID : V_MPEG4/ISO/AVCDuration : 1h 11mnBit rate : 7 232 KbpsWidth : 1 920 pixelsHeight : 1 080 pixelsDisplay aspect ratio : 16:9Frame rate mode : ConstantFrame rate : 23.976 fpsColor space : YUVChroma subsampling : 4:2:0Bit depth : 8 bitsScan type : ProgressiveBits/(Pixel*Frame) : 0.145Stream size : 3.61 GiB (81%)Writing library : x264 core 148 r2665 a01e339Encoding settings : cabac=1 / ref=4 / deblock=1:0:0 / analyse=0x3:0x133 / me=umh / subme=7 / psy=1 / psy_rd=1.00:0.00 / mixed_ref=1 / me_range=16 / chroma_me=1 / trellis=1 / 8x8dct=1 / cqm=0 / deadzone=21,11 / fast_pskip=0 / chroma_qp_offset=-2 / threads=12 / lookahead_threads=2 / sliced_threads=0 / nr=0 / decimate=1 / interlaced=0 / bluray_compat=0 / constrained_intra=0 / bframes=3 / b_pyramid=2 / b_adapt=1 / b_bias=0 / direct=1 / weightb=1 / open_gop=0 / weightp=2 / keyint=250 / keyint_min=23 / scenecut=40 / intra_refresh=0 / rc_lookahead=40 / rc=2pass / mbtree=1 / bitrate=7232 / ratetol=1.0 / qcomp=0.60 / qpmin=0 / qpmax=69 / qpstep=4 / cplxblur=20.0 / qblur=0.5 / ip_ratio=1.40 / aq=1:1.00Language : EnglishDefault : YesForced : No
Audio #1ID : 2Format : AC-3Format/Info : Audio Coding 3Mode extension : CM (complete main)Format settings, Endianness : BigCodec ID : A_AC3Duration : 1h 11mnBit rate mode : ConstantBit rate : 192 KbpsChannel(s) : 2 channelsChannel positions : Front: L RSampling rate : 48.0 KHzFrame rate : 31.250 fps (1536 spf)Compression mode : LossyStream size : 98.3 MiB (2%)Language : RussianDefault : YesForced : No
Audio #2ID : 3Format : DTSFormat/Info : Digital Theater SystemsMode : 16Format settings, Endianness : BigCodec ID : A_DTSDuration : 1h 11mnBit rate mode : ConstantBit rate : 1 509 KbpsChannel(s) : 6 channelsChannel positions : Front: L C R, Side: L R, LFESampling rate : 48.0 KHzFrame rate : 93.750 fps (512 spf)Bit depth : 24 bitsCompression mode : LossyStream size : 773 MiB (17%)Language : EnglishDefault : NoForced : No
TextID : 4Format : UTF-8Codec ID : S_TEXT/UTF8Codec ID/Info : UTF-8 Plain TextDuration : 1h 11mnBit rate : 64 bpsCount of elements : 1204Stream size : 33.7 KiB (0%)Language : EnglishDefault : NoForced : No
Menu00:00:00.000 : en:00:00:00.00000:06:21.840 : en:00:06:21.84000:14:44.842 : en:00:14:44.84200:19:20.534 : en:00:19:20.53400:26:58.408 : en:00:26:58.40800:32:21.731 : en:00:32:21.73100:36:47.372 : en:00:36:47.37200:41:14.097 : en:00:41:14.09700:50:51.340 : en:00:50:51.34000:58:54.865 : en:00:58:54.86501:06:44.125 : en:01:06:44.12501:10:09.914 : en:01:10:09.914

Скриншоты



_________________
Показать сообщения:    

Текущее время: Сегодня 07:01

Часовой пояс: GMT



Вы не можете начинать темы
Вы не можете отвечать на сообщения
Вы не можете редактировать свои сообщения
Вы не можете удалять свои сообщения
Вы не можете голосовать в опросах
Вы не можете прикреплять файлы к сообщениям
Вы не можете скачивать файлы