Важное объявление!
У Нас Все раздачи мультитрекерные, при нуле пиров в релизах, можете смело вставать на закачку!
 
Автор Сообщение

HUNTER

Стаж:
4 года 9 месяцев
Сообщений:
65021

Репутация: 101

[+] [-]
Вне форума [Профиль] [ЛС]

Школа интегрального воспитания / серии 1-51 из 51
-Название: Школа интегрального воспитания
Год выпуска: 2011-2012
Страна: Россия, Израиль
Производство: Ari Films
Жанр: телепередача
Продолжительность: 52:38:20
Язык: Русский
Субтитры: нет-В ролях: М. Лайтман, А. Ульянов, Е. Фридман
Режиссёр: Семён Винокур-Описание: Как объяснить вкратце, что такое интегральное воспитание и чем оно отличается от того, что все знают об образовании и воспитании?
Мы сегодня живём в глобальном, интегральном мире. Все части его взаимосвязаны, и каждая часть определяет судьбу всех. Человек, который правильно войдёт в интеграцию, от этого выиграет. У него будут необходимые навыки для выживания. Выживет только тот, кто приспособится, поймёт, что интеграция, взаимосвязь, взаимное поручительство, уступки, связи, объединение - это зов природы. А цель природы - привести человечество к подобию себе - к гармонии и совершенству.
Интегральное воспитание должно быть принято как закон, без которого общество уже не сможет существовать. То есть это должно стать самым главным, основным законом города или общества, которое будет построено на совместимости, интеграции, на взаимном дополнении и добровольном участии...-Качество: WEB-DLRip
Формат: AVI
Видеокодек: XviD
Аудиокодек: MP3
Видео: 720 x 400, 25,000 fps, ~ 1000 Kbps, ~ 0.140 bit/pixel
Аудио: 44,1 kHz, 2 (L,R) ch, 128 kb/s-Аудиоверсия телепередачи Школа интегрального воспитания / выпуски 1-51 из 51

Скриншоты

MediaInfo

ОбщееПолное имя : teleprogramma.Shkola_integralnogo_vospitanija.avi\«Нарисуем, будем жить!» - почему это возможно.aviФормат : AVIФормат/Информация : Audio Video InterleaveРазмер файла : 502 МбайтПродолжительность : 1 ч. 1 м.Общий поток : 1140 Кбит/секПрограмма кодирования : Lavf52.93.0
ВидеоИдентификатор : 0Формат : xvidИдентификатор кодека : xvidПродолжительность : 1 ч. 1 м.Битрейт : 1000 Кбит/секШирина : 720 пикселейВысота : 400 пикселейСоотношение сторон : 16:9Частота кадров : 25,000 кадров/секБит/(Пиксели*Кадры) : 0.139Размер потока : 440 Мбайт (88%)
АудиоИдентификатор : 1Формат : MPEG AudioВерсия формата : Version 1Профиль формата : Layer 3Режим : Joint stereoРасширение режима : MS StereoИдентификатор кодека : 55Идентификатор кодека/Подсказка : MP3Продолжительность : 1 ч. 1 м.Вид битрейта : ПостоянныйБитрейт : 128 Кбит/секКаналы : 2 каналаЧастота : 44,1 КГцМетод сжатия : С потерямиРазмер потока : 56,3 Мбайт (11%)Выравнивание : Соединение по промежуткамПродолжительность промежутка : 26 мс. (0,65 видеокадр)Библиотека кодирования : LAME3.98.4

Список серий


01 «Нарисуем, будем жить!» - почему это возможно - (61:30)
02 100 часов интегрального воспитания - (73:09)
03 Воспитатель как режиссёр-постановщик - (63:34)
04 Вызов времени - научиться жить интегрально - (77:41)
05 Глобальное воспитание - (78:48)
06 Группа как основа интегрального воспитания - (29:38)
07 Инструкторы интегрального воспитания - (61:46)
08 Инструментальные ценности человека - (66:56)
09 Интегральная семья - (71:09)
10 Интегральное воспитание от А до Я - (61:01)
11 Интегральное воспитанияв в период глобального кризиса - (60:21)
12 Интегральное восприятие информации - (61:16)
13 Интегральное соединение между людьми - (78:42)
14 Как жить в интегральном мире - (58:23)
15 Как перейти на уровень «человек» - (62:19)
16 Лагеря отдыха - (87:14)
17 Лицедейство в борьбе с эгоизмом - (64:14)
18 Любовь и брак - (28:48)
19 Методика объединения для семейных пар - (30:12)
20 Многоплановое постижение мира - (66:42)
21 Мужчина и женщина - работа в группе - (60:22)
22 Общественное мнение - инструмент воспитания - (59:28)
23 Общество меняет человека - (60:27)
24 Отрицательная реакция человека и агрессия - (91:46)
25 Первые шаги к интегральному обществу - (62:28)
26 Переход к новой модели воспитания - (56:32)
27 Подготовка преподавателей. История развития эгоизма - (60:01)
28 Пособие по решению цивилизационного кризиса - (61:00)
29 Построение социального окружения - (64:29)
30 Практическая часть. Первое знакомство - (60:13)
31 Практическое использование методики интегрального воспитания - (60:00)
32 Призыв природы к объединению - (60:23)
33 Принципы интегрального воспитания - (63:10)
34 Проблемы семьи - (28:22)
35 Развиваемся играя - (60:32)
36 Роль инструктора - (60:58)
37 Роль учителя - (62:31)
38 Самопознание - (62:53)
39 Семья и социум - (72:12)
40 Создание интегральной среды - (62:27)
41 Сравнительный анализ психотерапии и методики интегрального воспитания - (81:41)
42 Становление интегрального общества - (62:57)
43 Строим модель интегрального общества - (101:39)
44 Учимся у истории - (58:01)
45 Школа для взрослых - (59:04)
46 Эволюция психологии - (86:53)
47 Экспериментальная группа молодёжи 1 - (24:12)
48 Экспериментальная группа молодёжи 2 - (49:43)
49 Этапы развития человека от 0 до 9 лет - (49:38)
50 Этапы развития человека от 9 до 20 лет - (53:40)
51 Этапы развития человека от 20 лет - (56:46)

_________________
Показать сообщения:    

Текущее время: Сегодня 19:22

Часовой пояс: GMT



Вы не можете начинать темы
Вы не можете отвечать на сообщения
Вы не можете редактировать свои сообщения
Вы не можете удалять свои сообщения
Вы не можете голосовать в опросах
Вы не можете прикреплять файлы к сообщениям
Вы не можете скачивать файлы