Важное объявление!
У Нас Все раздачи мультитрекерные, при нуле пиров в релизах, можете смело вставать на закачку!
 
Автор Сообщение

HUNTER

Стаж:
4 года 7 месяцев
Сообщений:
61531

Репутация: 101

[+] [-]
Вне форума [Профиль] [ЛС]

Школа Брейк Данса-

Год выпуска: 2006
Страна: Россия
Сайт производителя: Отсутствует
Тематика: Танцы
Тип материала: обучающее видео-Продолжительность: 00:50:37
Автор: Николай Пуканов
В ролях: Владимир Иванов, Пытлева Настя, Тарасенко Виталий, Ходько Дмитрий, Светогор Дмитрий, Маслобоев Павел.-Язык: Русский
Субтитры: Отсутствуют-Описание: Брейк данс - танцевальный стиль, завоевавшый огромную популярность за время своего существования. Он смог объединить в себе массу различных танцевальных направлений, превратившись в одно универсальное. Но прежде всего, брейк данс - это танец улиц, доступный всем и каждому.
Эта программа поможет Вам овладеть правильной техникой исполнения "уличного" танца. Вы сможете научится основным элементам брейк данса, таким как Pop locking, Style, Top-rock, Rower moove`s. Для очень многих большое значение имеет то, что брейк данс - это постоянно развивающийся стиль. Вы всегда сможете привнести в него какие-то собственные элементы и разработать собственные направления.
Дерзайте! Мы желаем Вам не останавливается на достигнутом!
Танцуйте и совершенствуйтесь и и Вашы друзья и знакомые ценят это по достоинству!
-Качество: DVD5
Формат: DVD Video
Видео кодек: Dolby Digital
Аудио кодек: MPEG-2
Видео: MPEG2 Video 720x576 (4:3) 25fps 9110kbps
Аудио: Dolby AC3 48000Hz stereo 224kbps-

MediaInfo

Код: copyText_writeLink('this.parentNode.parentNode.nextSibling.nextSibling'); General
Complete name : E:\Закачки\Breik_[tfile.ru]\VIDEO_TS\VTS_01_2.VOB
Format : MPEG-PS
File size : 1 024 MiB
Duration : 14mn 27s
Overall bit rate mode : Variable
Overall bit rate : 9 901 Kbps
Video
ID : 224 (0xE0)
Format : MPEG Video
Format version : Version 2
Format profile : Main@Main
Format settings, BVOP : Yes
Format settings, Matrix : Default
Format settings, GOP : M=3, N=15
Duration : 14mn 27s
Bit rate mode : Variable
Bit rate : 9 111 Kbps
Width : 720 pixels
Height : 576 pixels
Display aspect ratio : 4:3
Frame rate : 25.000 fps
Standard : PAL
Color space : YUV
Chroma subsampling : 4:2:0
Bit depth : 8 bits
Scan type : Interlaced
Scan order : Bottom Field First
Compression mode : Lossy
Bits/(Pixel*Frame) : 0.879
Stream size : 934 MiB (91%)
Audio #1
ID : 189 (0xBD)-128 (0x80)
Format : AC-3
Format/Info : Audio Coding 3
Mode extension : CM (complete main)
Format settings, Endianness : Big
Muxing mode : DVD-Video
Duration : 14mn 27s
Bit rate mode : Constant
Bit rate : 224 Kbps
Channel(s) : 2 channels
Channel positions : Front: L R
Sampling rate : 48.0 KHz
Bit depth : 16 bits
Compression mode : Lossy
Delay relative to video : -392ms
Stream size : 23.2 MiB (2%)
Audio #2
ID : 189 (0xBD)-129 (0x81)
Format : AC-3
Format/Info : Audio Coding 3
Mode extension : CM (complete main)
Format settings, Endianness : Big
Muxing mode : DVD-Video
Duration : 14mn 27s
Bit rate mode : Constant
Bit rate : 448 Kbps
Channel(s) : 6 channels
Channel positions : Front: L C R, Side: L R, LFE
Sampling rate : 48.0 KHz
Bit depth : 16 bits
Compression mode : Lossy
Delay relative to video : -424ms
Stream size : 46.3 MiB (5%)
Menu
- -

_________________
Показать сообщения:    

Текущее время: Сегодня 09:46

Часовой пояс: GMT



Вы не можете начинать темы
Вы не можете отвечать на сообщения
Вы не можете редактировать свои сообщения
Вы не можете удалять свои сообщения
Вы не можете голосовать в опросах
Вы не можете прикреплять файлы к сообщениям
Вы не можете скачивать файлы
Наши партнеры: интернет магазин Ивановского трикотажа textilla.ru